Исчезнувшая / Gone Girl (Дэвид Финчер / David Fincher) [2014, США, триллер, драма, детектив, BDRip-AVC] Dub + Sub Rus, Ukr, Eng

Ответить на тему
 
Автор Сообщение

user ®

Стаж: 7 лет 7 месяцев

Сообщений: 20008

Пост Пост: #1 от 11-Янв-2015 18:21

[Цитировать]

Исчезнувшая
Gone Girl
- Страна: США
Жанр: триллер, драма, детектив
Год выпуска: 2014
Продолжительность: 02:29:01
Перевод: Профессиональный (дублированный)
Cубтитры: русские, украинские, английские
Оригинальная аудиодорожка: нет-Режиссер: Дэвид Финчер | David Fincher
В ролях: Бен Аффлек, Розамунд Пайк, Кэрри Кун, Ким Диккенс, Нил Патрик Харрис, Тайлер Перри, Патрик Фьюджит, Бойд Холбрук, Мисси Пайл, Эмили Ратажковски.-Описание: Все было готово для празднования пятилетнего юбилея супружеской жизни, когда вдруг необъяснимо пропал один из виновников торжества. Остались следы борьбы в доме, кровь, которую явно пытались стереть, — и цепочка ключей в игре под названием охота за сокровищами, красивая, умная и невероятно изобретательная жена ежегодно устраивала ее для своего обожаемого мужа. И похоже, что эти ключ — размещенные ею тут и там странные записки и не менее странные безделушки — дают единственный шанс пролить свет на судьбу исчезнувшей. Вот только не придется ли охотнику в процессе поиска раскрыть миру и пару-тройку собственных малосимпатичных тайн?-Релиз от: HELLYWOOD | Автор рипа: potroks
Качество видео: BDRip-AVC | (Gone Girl Blu-ray 1080p)
Формат видео: MKV | Sample
Видео: 960x400 (2.40:1), 23.976 fps, x264@L4.1 ~1212 kbps avg, 0.13 bit/pixel
Аудио: 48 kHz, AC3 Dolby Digital, 2/0 (L,R) ch, 192.00 kbps avg | BD EUR

Инфо
Формат : Matroska
Версия формата : Version 4 / Version 2
Размер файла : 1,46 Гбайт
Продолжительность : 2 ч. 29 м.
Общий поток : 1399 Кбит/сек
Название фильма : Gone Girl (2014) - HELLYWOOD
Дата кодирования : UTC 2014-12-22 19:23:59
Программа кодирования : mkvmerge v5.9.0 ('On The Loose') built on Dec 15 2012 16:39:58
Библиотека кодирования : libebml v1.3.0 + libmatroska v1.4.0
Видео
Идентификатор : 1
Формат : AVC
Формат/Информация : Advanced Video Codec
Профиль формата : High@L4.1
Параметр CABAC формата : Да
Параметр ReFrames формата : 12 кадров
Идентификатор кодека : V_MPEG4/ISO/AVC
Продолжительность : 2 ч. 29 м.
Битрейт : 1212 Кбит/сек
Ширина : 960 пикселей
Высота : 400 пикселей
Соотношение сторон : 2,40:1
Режим частоты кадров : Постоянный
Частота кадров : 23,976 кадра/сек
Цветовое пространство : YUV
Субдискретизация насыщенности : 4:2:0
Битовая глубина : 8 бит
Тип развёртки : Прогрессивная
Бит/(Пиксели*Кадры) : 0.132
Размер потока : 1,23 Гбайт (84%)
Заголовок : potroks
Библиотека кодирования : x264 core 130 r2273 b3065e6
Настройки программы : cabac=1 / ref=12 / deblock=1:-2:-2 / analyse=0x3:0x133 / me=umh / subme=11 / psy=1 / psy_rd=1.05:0.06 / mixed_ref=1 / me_range=48 / chroma_me=1 / trellis=2 / 8x8dct=1 / cqm=0 / deadzone=21,11 / fast_pskip=0 / chroma_qp_offset=-3 / threads=9 / lookahead_threads=6 / sliced_threads=0 / nr=0 / decimate=0 / interlaced=0 / bluray_compat=0 / constrained_intra=0 / bframes=13 / b_pyramid=2 / b_adapt=2 / b_bias=0 / direct=3 / weightb=1 / open_gop=0 / weightp=2 / keyint=250 / keyint_min=23 / scenecut=40 / intra_refresh=0 / rc_lookahead=60 / rc=2pass / mbtree=0 / bitrate=1212 / ratetol=1.0 / qcomp=0.70 / qpmin=0 / qpmax=69 / qpstep=4 / cplxblur=20.0 / qblur=0.5 / vbv_maxrate=50000 / vbv_bufsize=62500 / nal_hrd=none / ip_ratio=1.35 / pb_ratio=1.25 / aq=1:0.80
Язык : English
Default : Да
Forced : Нет
Аудио
Идентификатор : 2
Формат : AC-3
Формат/Информация : Audio Coding 3
Расширение режима : CM (complete main)
Параметр Endianness формата : Big
Идентификатор кодека : A_AC3
Продолжительность : 2 ч. 29 м.
Вид битрейта : Постоянный
Битрейт : 192 Кбит/сек
Каналы : 2 канала
Расположение каналов : Front: L R
Частота : 48,0 КГц
Битовая глубина : 16 бит
Метод сжатия : С потерями
Размер потока : 205 Мбайт (14%)
Заголовок : Dub | DD 2.0 @ 192 kbps - Blu-Ray CEE
Язык : Russian
Default : Да
Forced : Нет
Текст #1
Идентификатор : 3
Формат : UTF-8
Идентификатор кодека : S_TEXT/UTF8
Идентификатор кодека/Информация : UTF-8 Plain Text
Заголовок : Blu-Ray
Язык : Russian
Default : Нет
Forced : Нет
Текст #2
Идентификатор : 4
Формат : UTF-8
Идентификатор кодека : S_TEXT/UTF8
Идентификатор кодека/Информация : UTF-8 Plain Text
Заголовок : MartinaG
Язык : Russian
Default : Нет
Forced : Нет
Текст #3
Идентификатор : 5
Формат : UTF-8
Идентификатор кодека : S_TEXT/UTF8
Идентификатор кодека/Информация : UTF-8 Plain Text
Язык : Ukrainian
Default : Нет
Forced : Нет
Текст #4
Идентификатор : 6
Формат : UTF-8
Идентификатор кодека : S_TEXT/UTF8
Идентификатор кодека/Информация : UTF-8 Plain Text
Язык : English
Default : Нет
Forced : Нет
Меню
00:00:00.000 : en:(01)00:00:00:000
00:03:27.957 : en:(02)00:03:27:957
00:06:57.834 : en:(03)00:06:57:834
00:08:19.540 : en:(04)00:08:19:540
00:11:58.592 : en:(05)00:11:58:592
00:15:01.483 : en:(06)00:15:01:483
00:18:13.509 : en:(07)00:18:13:509
00:19:56.737 : en:(08)00:19:56:737
00:21:43.093 : en:(09)00:21:43:093
00:23:53.849 : en:(10)00:23:53:849
00:28:34.879 : en:(11)00:28:34:879
00:31:32.515 : en:(12)00:31:32:515
00:34:39.077 : en:(13)00:34:39:077
00:40:51.198 : en:(14)00:40:51:198
00:44:37.383 : en:(15)00:44:37:383
00:46:57.815 : en:(16)00:46:57:815
00:49:19.706 : en:(17)00:49:19:706
00:54:13.333 : en:(18)00:54:13:333
01:00:06.686 : en:(19)01:00:06:686
01:03:16.209 : en:(20)01:03:16:209
01:06:08.714 : en:(21)01:06:08:714
01:12:56.997 : en:(22)01:12:56:997
01:15:13.008 : en:(23)01:15:13:008
01:19:54.456 : en:(24)01:19:54:456
01:21:56.119 : en:(25)01:21:56:119
01:27:24.155 : en:(26)01:27:24:155
01:28:12.537 : en:(27)01:28:12:537
01:33:28.561 : en:(28)01:33:28:561
01:39:34.510 : en:(29)01:39:34:510
01:46:26.713 : en:(30)01:46:26:713
01:50:46.514 : en:(31)01:50:46:514
01:56:40.618 : en:(32)01:56:40:618
01:59:06.097 : en:(33)01:59:06:097
02:02:23.127 : en:(34)02:02:23:127
02:05:35.069 : en:(35)02:05:35:069
02:12:30.817 : en:(36)02:12:30:817
02:16:12.789 : en:(37)02:16:12:789
02:19:56.930 : en:(38)02:19:56:930
02:22:42.303 : en:(39)02:22:42:303
02:24:15.647 : en:(40)02:24:15:647
02:29:01.724 : en:(41)02:29:01:724
Скриншоты
Скачать

Скачать торрент!

Как скачивать? · Что такое торрент? · Рейтинг и ограничения

Сайт не распространяет и не хранит электронные версии произведений, а лишь предоставляет доступ к создаваемому пользователями каталогу ссылок на торрент-файлы, которые содержат только списки хеш-сумм

[Профиль] [ЛС]
Показать сообщения:    
Ответить на тему

Текущее время: Сегодня 20:20

Часовой пояс: GMT + 4



Вы не можете начинать темы
Вы не можете отвечать на сообщения
Вы не можете редактировать свои сообщения
Вы не можете удалять свои сообщения
Вы не можете голосовать в опросах
Вы не можете прикреплять файлы к сообщениям
Вы не можете скачивать файлы