13 грехов / 13 Sins (Даниэль Штамм / Daniel Stamm) [2014, США, Триллер, Ужасы, HDRip-AVC] Dub (Line) + Sub Rus

Ответить на тему
 
Автор Сообщение

user ®

Стаж: 7 лет 7 месяцев

Сообщений: 20008

Пост Пост: #1 от 11-Янв-2015 18:21

[Цитировать]

13 грехов / 13 Sins
Страна: США
Жанр: Триллер, Ужасы
Год выпуска: 2014
Продолжительность: 01:32:31
Перевод: Профессиональный (дублированный) [Line]
Cубтитры: русские
Режиссер: Даниэль Штамм / Daniel Stamm
В ролях: Марк Веббер, Рутина Уэсли, Девон Грайе, Прюитт Тэйлор Винс, Том Бауэр, Рон Перлман, Клайд Джонс, Денин Тайлер, Грег Пирсон, Ричи Монтгомери
Описание: Эллиот Бриндл — умный кроткий сотрудник службы социального обеспечения, тонущий в долгах. Но все меняется, когда раздается телефонный звонок. На том конце провода ему сообщают, что он становится участником тв-шоу, условия простые — выполнить 13 заданий, какими бы странными они не были; приз — деньги, которые копятся с каждым выполненным заданием. Отказ от выполнения или провал задания ведет к обнулению банка.Деньги можно забрать только выполнив все 13 заданий ведущего. Эллиот следует первым инструкциям и с легкостью съедает пойманную муху. На счету Бриндла появляются первые легкие деньги. Эллиот хочет, но не может прекратить игру, чтобы не потерять «заработанное», хотя задачи становятся более изощренными и опасными, а точка невозврата вот-вот будет пройдена.

Качество видео: HDRip-AVC
Формат видео: MKV
Видео: AVC, 1024 х 428, 2.40:1, 23.976 fps, ~2615 kb/s, 0.249 Bits / Pixel
Аудио 1: AC3, 2 каналов, 384 Кбит/сек | Русский
Аудио 2: AC3, 6 каналов, 384 Кбит/сек | Английский
Формат субтитров: softsub (SRT)
MediaInfo
C:\Users\Арсен\Desktop\13.Grehov.2014.HDRip-AVC.mkv
General
Unique ID : 226611141231584807881256398545183611786 (0xAA7BB7E014F2FCD686336832081C9B8A)
Complete name : C:\Users\Арсен\Desktop\13.Grehov.2014.HDRip-AVC.mkv
Format : Matroska
Format version : Version 4 / Version 2
File size : 2.19 GiB
Duration : 1h 32mn
Overall bit rate : 3 383 Kbps
Movie name : 13.Grehov.2014.HDRip-AVC [Tellurian 1]
Encoded date : UTC 2015-01-10 22:08:23
Writing application : mkvmerge v7.2.0 ('On Every Street') 64bit built on Sep 13 2014 15:52:10
Writing library : libebml v1.3.0 + libmatroska v1.4.1
_STATISTICS_WRITING_APP : mkvmerge v7.2.0 ('On Every Street') 64bit built on Sep 13 2014 15:52:10
_STATISTICS_WRITING_DATE_UTC : 2015-01-10 22:08:23
_STATISTICS_TAGS : BPS DURATION NUMBER_OF_FRAMES NUMBER_OF_BYTES
DURATION : 01:31:52.305000000
NUMBER_OF_FRAMES : 1076
NUMBER_OF_BYTES : 43215
Video #1
ID : 1
Format : AVC
Format/Info : Advanced Video Codec
Format profile : High@L4.1
Format settings, CABAC : Yes
Format settings, ReFrames : 7 frames
Codec ID : V_MPEG4/ISO/AVC
Duration : 1h 32mn
Bit rate : 2 615 Kbps
Width : 1 024 pixels
Height : 428 pixels
Display aspect ratio : 2.40:1
Frame rate : 23.976 fps
Color space : YUV
Chroma subsampling : 4:2:0
Bit depth : 8 bits
Scan type : Progressive
Bits/(Pixel*Frame) : 0.249
Stream size : 1.65 GiB (75%)
Writing library : x264 core 142 r2431 ac76440
Encoding settings : cabac=1 / ref=7 / deblock=1:-3:-3 / analyse=0x3:0x133 / me=umh / subme=11 / psy=1 / psy_rd=1.00:0.08 / mixed_ref=1 / me_range=32 / chroma_me=1 / trellis=2 / 8x8dct=1 / cqm=0 / deadzone=21,11 / fast_pskip=0 / chroma_qp_offset=-3 / threads=6 / lookahead_threads=1 / sliced_threads=0 / nr=0 / decimate=0 / interlaced=0 / bluray_compat=0 / constrained_intra=0 / bframes=10 / b_pyramid=2 / b_adapt=2 / b_bias=0 / direct=3 / weightb=1 / open_gop=0 / weightp=2 / keyint=240 / keyint_min=23 / scenecut=40 / intra_refresh=0 / rc_lookahead=60 / rc=2pass / mbtree=1 / bitrate=2615 / ratetol=1.0 / qcomp=0.70 / qpmin=0 / qpmax=69 / qpstep=4 / cplxblur=20.0 / qblur=0.5 / vbv_maxrate=50000 / vbv_bufsize=62500 / nal_hrd=none / filler=0 / ip_ratio=1.40 / aq=1:0.80
Audio #2
ID : 2
Format : AC-3
Format/Info : Audio Coding 3
Mode extension : CM (complete main)
Codec ID : A_AC3
Duration : 1h 32mn
Bit rate mode : Constant
Bit rate : 384 Kbps
Channel(s) : 2 channels
Channel positions : Front: L R
Sampling rate : 48.0 KHz
Bit depth : 16 bits
Compression mode : Lossy
Stream size : 254 MiB (11%)
Language : Russian
Audio #3
ID : 3
Format : AC-3
Format/Info : Audio Coding 3
Mode extension : CM (complete main)
Codec ID : A_AC3
Duration : 1h 32mn
Bit rate mode : Constant
Bit rate : 384 Kbps
Channel(s) : 6 channels
Channel positions : Front: L C R, Side: L R, LFE
Sampling rate : 48.0 KHz
Bit depth : 16 bits
Compression mode : Lossy
Stream size : 254 MiB (11%)
Language : English
Text #4
ID : 4
Format : UTF-8
Codec ID : S_TEXT/UTF8
Codec ID/Info : UTF-8 Plain Text
Language : Russian
Text #5
ID : 5
Format : UTF-8
Codec ID : S_TEXT/UTF8
Codec ID/Info : UTF-8 Plain Text
Language : English
Скриншот c названием фильма Скриншоты
Скачать

Скачать торрент!

Как скачивать? · Что такое торрент? · Рейтинг и ограничения

Сайт не распространяет и не хранит электронные версии произведений, а лишь предоставляет доступ к создаваемому пользователями каталогу ссылок на торрент-файлы, которые содержат только списки хеш-сумм

[Профиль] [ЛС]
Показать сообщения:    
Ответить на тему

Текущее время: Сегодня 18:16

Часовой пояс: GMT + 4



Вы не можете начинать темы
Вы не можете отвечать на сообщения
Вы не можете редактировать свои сообщения
Вы не можете удалять свои сообщения
Вы не можете голосовать в опросах
Вы не можете прикреплять файлы к сообщениям
Вы не можете скачивать файлы