Готическая Лолита / Gothic Lolita Psycho (Гоу Охара / Go Ohara) [2010, Япония, ужасы, боевик,, DVDRip] VO [Jet]

Ответить на тему
 
Автор Сообщение

user ®

Стаж: 13 лет

Сообщений: 15071

Пост Пост: #1 от 10-Янв-2015 23:36

[Цитировать]

Готическая Лолита / Gothic Lolita Psycho- -Страна: Япония
Жанр: ужасы, боевик,
Год выпуска: 2010
Продолжительность: 01:27:40-Перевод: Одноголосый закадровый [Jet]-Cубтитры: нет
Оригинальная аудиодорожка: нет
Режиссер: Гоу Охара / Go Ohara
В ролях: Рина Акияма, Руито Аояки, Асами, Юкихиде Бенни, Джонни Кейнс, Сатоши Хакузен, Йуи Ивата, Крис Марк, Джеймс Марк, Фумие Накаджима, Масахиро Окамото, Мэй Шибата, Масато Ямагучи, Юрэй Янаги...
Описание: Школьница Юки отмечает свой очередной день рождения вместе с родителями. Неожиданно в их дом врываются бандиты. Они убивают мать Юки и избивают ее отца, после чего тот становится прикованным к инвалидной коляске. Отважная девушка решает отомстить. Вооружившись смертоносным зонтиком, она по очереди отлавливает негодяев и жестоко расправляется с ними…
Релиз от -
Сэмпл: http://multi-up.com/1025665
Качество видео: DVDRip
Формат видео: AVI
Видео: MPEG-4 Visual at 1053 Кбит/сек; 688 x 384 (1.792) at 23.976 fps
Аудио: MPEG Audio at 128 Кбит/сек; 2 канала, 48,0 КГц
Автор -
MediaInfo
Общее
Полное имя : D:\Фильмы\Азиатские\Готическая Лолита\Gothic Lolita Psycho.2010.DVDRip.XviD.745MB. rip by [Assassin's Creed].avi
Формат : AVI
Формат/Информация : Audio Video Interleave
Размер файла : 747 Мбайт
Продолжительность : 1 ч. 27 м.
Общий поток : 1190 Кбит/сек
Программа кодирования : VirtualDubMod 1.5.10.3 | www.virtualdub-fr.org || (build 2550/release)
Библиотека кодирования : VirtualDubMod build 2550/release
Видео
Идентификатор : 0
Формат : MPEG-4 Visual
Профиль формата : Advanced Simple@L5
Параметр BVOP формата : 1
Параметр QPel формата : Нет
Параметр GMC формата : Без точки перехода
Параметр матрицы формата : Default (MPEG)
Идентификатор кодека : XVID
Идентификатор кодека/Подсказка : XviD
Продолжительность : 1 ч. 27 м.
Битрейт : 1053 Кбит/сек
Ширина : 688 пикселей
Высота : 384 пикселя
Соотношение сторон : 16:9
Частота кадров : 23,976 кадра/сек
Цветовое пространство : YUV
Субдискретизация насыщенности : 4:2:0
Битовая глубина : 8 бит
Тип развёртки : Прогрессивная
Метод сжатия : С потерями
Бит/(Пиксели*Кадры) : 0.166
Размер потока : 661 Мбайт (88%)
Библиотека кодирования : XviD 1.2.1 (UTC 2008-12-04)
Аудио
Идентификатор : 1
Формат : MPEG Audio
Версия формата : Version 1
Профиль формата : Layer 3
Идентификатор кодека : 55
Идентификатор кодека/Подсказка : MP3
Продолжительность : 1 ч. 27 м.
Вид битрейта : Постоянный
Битрейт : 128 Кбит/сек
Каналы : 2 канала
Частота : 48,0 КГц
Метод сжатия : С потерями
Размер потока : 80,4 Мбайт (11%)
Выравнивание : Соединение по промежуткам
Продолжительность промежутка : 42 мс. (1,00 видеокадр)
Время предзагрузки промежутка : 504 мс.
Библиотека кодирования : LAME3.99r
Настройки программы : -m s -V 4 -q 2 -lowpass 17 -b 128
Скриншот c названием фильма Скриншоты
Скачать

Скачать торрент! Готическая Лолита / Gothic Lolita Psycho (Гоу Охара / Go Ohara) [2010, Япония, ужасы, боевик,, DVDRip] VO [Jet]

Как скачивать? · Что такое торрент? · Рейтинг и ограничения

Сайт не распространяет и не хранит электронные версии произведений, а лишь предоставляет доступ к создаваемому пользователями каталогу ссылок на торрент-файлы, которые содержат только списки хеш-сумм

[Профиль] [ЛС]
Показать сообщения:    
Ответить на тему

Текущее время: Сегодня 12:00

Часовой пояс: GMT + 4



Вы не можете начинать темы
Вы не можете отвечать на сообщения
Вы не можете редактировать свои сообщения
Вы не можете удалять свои сообщения
Вы не можете голосовать в опросах
Вы не можете прикреплять файлы к сообщениям
Вы не можете скачивать файлы