На грани смерти / On The Verge Of Death / The Line of Death (Ли Фай Мон / Li Fai Mon) [1973, Тайвань, боевые искусства, DVDRip] VO (Виктор Береговых)

Ответить на тему
 
Автор Сообщение

user ®

Стаж: 13 лет

Сообщений: 15071

Пост Пост: #1 от 10-Янв-2015 23:36

[Цитировать]

На грани смерти / On The Verge Of Death / The Line of Death
Страна: Тайвань
Жанр: боевые искусства
Год выпуска: 1973
Продолжительность: 01:23:11
Перевод: Одноголосый закадровый (Виктор Береговых)
Cубтитры: нет
Режиссер: Ли Фай Мон / Li Fai Mon
В ролях: Тан Лун, Хон Хой, Йи Юэнь, Хау Йе, Чань Вай Лау, Лю Чик
Описание: Долина Ло Фон - проклятое место.Тут обитают зомби и люди стараются обходить долину стороной.Здесь пересекаются пути охотника за головами, девушки,ищущей эскорт своего отца и парня,ищущего убийц своей семьи.Все они не верят в зомби и все они надеются докопаться до правды...
Сэмпл: https://www.sendspace.com/file/nl5rev
Качество видео: VHSRip
Формат видео: AVI
Видео: XviD, 640x480 (4:3), 29.970 fps, 976 kbps avg, 0.106 bit/pixel
Аудио: AC3, 48.0 KHz, 192 Kbps, 2 channels
MediaInfo
Format : AVI
Format/Info : Audio Video Interleave
File size : 700 MiB
Duration : 1h 23mn
Overall bit rate : 1 176 Kbps
Writing application : VirtualDubMod 1.5.4.1 (build 2178/release)
Writing library : VirtualDubMod build 2178/release
Video
ID : 0
Format : MPEG-4 Visual
Format profile : AdvancedSimple@L5
Format settings, BVOP : Yes
Format settings, QPel : No
Format settings, GMC : No warppoints
Format settings, Matrix : Custom
Codec ID : XVID
Codec ID/Hint : XviD
Duration : 1h 23mn
Bit rate : 976 Kbps
Width : 640 pixels
Height : 480 pixels
Display aspect ratio : 4:3
Frame rate : 29.970 fps
Resolution : 24 bits
Colorimetry : 4:2:0
Scan type : Progressive
Bits/(Pixel*Frame) : 0.106
Stream size : 581 MiB (83%)
Writing library : XviD 1.2.0.dev47 (UTC 2006-11-01)
Audio
ID : 1
Format : AC-3
Format/Info : Audio Coding 3
Codec ID : 2000
Duration : 1h 23mn
Bit rate mode : Constant
Bit rate : 192 Kbps
Channel(s) : 2 channels
Channel positions : L R
Sampling rate : 48.0 KHz
Stream size : 114 MiB (16%)
Alignment : Split accross interleaves
Interleave, duration : 96 ms (2.88 video frames)
Interleave, preload duration : 96 ms
Language : Russian
Скриншот c названием фильма Скриншоты
Скачать

Скачать торрент! На грани смерти / On The Verge Of Death / The Line of Death (Ли Фай Мон / Li Fai Mon) [1973, Тайвань, боевые искусства, DVDRip] VO (Виктор Береговых)

Как скачивать? · Что такое торрент? · Рейтинг и ограничения

Сайт не распространяет и не хранит электронные версии произведений, а лишь предоставляет доступ к создаваемому пользователями каталогу ссылок на торрент-файлы, которые содержат только списки хеш-сумм

[Профиль] [ЛС]
Показать сообщения:    
Ответить на тему

Текущее время: Сегодня 21:06

Часовой пояс: GMT + 4



Вы не можете начинать темы
Вы не можете отвечать на сообщения
Вы не можете редактировать свои сообщения
Вы не можете удалять свои сообщения
Вы не можете голосовать в опросах
Вы не можете прикреплять файлы к сообщениям
Вы не можете скачивать файлы