Царь скорпионов 4: Утерянный трон / The Scorpion King: The Lost Throne (Майк Эллиот / Mike Elliott) [2015, США, Приключения, боевик, HDRip] MVO (BaibaKo)

Ответить на тему
 
Автор Сообщение

user ®

Стаж: 7 лет 7 месяцев

Сообщений: 20008

Пост Пост: #1 от 10-Янв-2015 23:36

[Цитировать]

Царь скорпионов 4: Утерянный трон / The Scorpion King: The Lost Throne
Страна: США
Жанр: Приключения, боевик
Год выпуска: 2015
Продолжительность: 01:44:51
Перевод: Любительский (многоголосый закадровый) BaibaKo
Cубтитры: нет
Режиссер: Майк Эллиот / Mike Elliott
В ролях: Ройс Грейси, Эсме Бьянко, Майкл Бин, Бэрри Боствик, Стивен Данливи, Грант Эллиотт, Лу Ферриньо, Ли Гилл, Роджер Халстон, Брэндон Хардест
Описание: В очередной киноленте о «Царе скорпионов» мы увидим как отстранённый от своего трона король-воин Метайюс принимает решение отправиться на самое страшное и ужасное задание своей жизни. Все это Метайюс решает сделать ради того, чтобы на его земле снова воцарился мир. Все вроде бы шло своим чередом, но однажды от Метайюса отворачивается его самый близкий и лучший друг, такого он никак не мог предвидеть. Теперь герой самолично должен противостоять страшному злодею, который готов на все только бы убить его. Сможет ли Метайюс, приложив все свои силы, противостоять своему противнику?! И добьётся ли наш герой того, ради чего он отважился на эту битву, наступит ли умиротворение на его земле?!
Сэмпл: http://multi-up.com/1025653
Качество видео: HDRip
Формат видео: AVI
Видео: 656x368 (1.78:1), 23.976 fps, XviD build 50 ~798 kbps avg, 0.14 bit/pixel
Аудио: 48 kHz, AC3 Dolby Digital, 2/0 (L,R) ch, ~128 kbps
MediaInfo
Формат : AVI
Формат/Информация : Audio Video Interleave
Размер файла : 702 Мбайт
Продолжительность : 1 ч. 44 м.
Общий поток : 936 Кбит/сек
Программа кодирования : VirtualDubMod 1.5.10.2 (build 2540/release)
Библиотека кодирования : VirtualDubMod build 2540/release
Видео
Идентификатор : 0
Формат : MPEG-4 Visual
Профиль формата : Advanced Simple@L5
Параметр BVOP формата : 2
Параметр QPel формата : Нет
Параметр GMC формата : Без точки перехода
Параметр матрицы формата : Default (MPEG)
Идентификатор кодека : XVID
Идентификатор кодека/Подсказка : XviD
Продолжительность : 1 ч. 44 м.
Битрейт : 798 Кбит/сек
Ширина : 656 пикселей
Высота : 368 пикселей
Соотношение сторон : 16:9
Частота кадров : 23,976 кадра/сек
Цветовое пространство : YUV
Субдискретизация насыщенности : 4:2:0
Битовая глубина : 8 бит
Тип развёртки : Прогрессивная
Метод сжатия : С потерями
Бит/(Пиксели*Кадры) : 0.138
Размер потока : 599 Мбайт (85%)
Библиотека кодирования : XviD 1.2.1 (UTC 2008-12-04)
Аудио
Идентификатор : 1
Формат : AC-3
Формат/Информация : Audio Coding 3
Расширение режима : CM (complete main)
Параметр Endianness формата : Big
Идентификатор кодека : 2000
Продолжительность : 1 ч. 44 м.
Вид битрейта : Постоянный
Битрейт : 128 Кбит/сек
Каналы : 2 канала
Расположение каналов : Front: L R
Частота : 48,0 КГц
Битовая глубина : 16 бит
Метод сжатия : С потерями
Размер потока : 96,0 Мбайт (14%)
Выравнивание : Разделение по промежуткам
Продолжительность промежутка : 42 мс. (1,00 видеокадр)
Время предзагрузки промежутка : 500 мс.
Скриншоты
Скачать

Скачать торрент!

Как скачивать? · Что такое торрент? · Рейтинг и ограничения

Сайт не распространяет и не хранит электронные версии произведений, а лишь предоставляет доступ к создаваемому пользователями каталогу ссылок на торрент-файлы, которые содержат только списки хеш-сумм

[Профиль] [ЛС]
Показать сообщения:    
Ответить на тему

Текущее время: Сегодня 04:11

Часовой пояс: GMT + 4



Вы не можете начинать темы
Вы не можете отвечать на сообщения
Вы не можете редактировать свои сообщения
Вы не можете удалять свои сообщения
Вы не можете голосовать в опросах
Вы не можете прикреплять файлы к сообщениям
Вы не можете скачивать файлы