С пылу, с жару / Жара / Seema Tapakai (Г. Нагешвара Редди / G. Nageswara Reddy ) [2011, Индия, Комедия, WEB-DLRip] MVO (Red Media)

Ответить на тему
 
Автор Сообщение

user ®

Стаж: 12 лет

Сообщений: 15092

Пост Пост: #1 от 10-Янв-2015 14:18

[Цитировать]

С пылу, с жару / Жара / Seema Tapakai
-Страна: Индия
Жанр: Комедия
Год выпуска: 2011
Продолжительность: 02:14:12-Перевод: Профессиональный (многоголосый закадровый) - Red Media (ТК Индия ТВ)
Cубтитры: Нет-Режиссер: Г. Нагешвара Редди / G. Nageswara Reddy--В ролях: Аллари Нареш, Пурна, Саяджи Шинде-Описание: Шри Кришна (Аллари Нареш) - сын крупного бизнесмена и мультимиллионера Гураджада Kришнамурти (Саяджи Шинде). Он влюбляется в Сатью (Пурна), которая ненавидит миллионеров. Чтобы получить любовь Сатьи Кришна начинает игру, переодевшись бедняком. Он всеми путями завоёвывает сердце Сатьи, подключив для этого и свою семью...
Какие трудности их ждут? Кто такая Сатья? Из какой семьи? Кто её отец? Всё это вы узнаете, посмотрев фильм.
-
- -Качество видео: WEB-DLRip
Формат видео: AVI-Видео: 720x320 (2.25:1), 23.976 fps, XviD build 50 ~1411 kbps avg
Audio: 48 kHz, MPEG Layer 3, 2 ch, ~128.00 kbps-Сэмпл / Sample
-
Риппер, синхрон. звука: soso4eg-Доп. информация: На видео местами остались небольшие следы англ. hardsub`a.
Просмотру это не мешает =) Пример на первом скрине.-- -
-
Скриншот с названием:
-
Скриншоты:
-
MI
General
Complete name : U:\[Релизы]\S.Pylu.S.Zharu.2011.WEB-DLRip.XviD-soso4eg.avi
Format : AVI
Format/Info : Audio Video Interleave
File size : 1.45 GiB
Duration : 2h 14mn
Overall bit rate : 1 549 Kbps
Movie name : Seema.Tapakai.2011.WEB-DLRip.XviD-soso4eg
Director : soso4eg
Writing application : VirtualDubMod 1.5.10.3 | www.virtualdub-fr.org || (build 2550/release)
Original source form/Name : Telugu
Copyright : специально для BitTorrent трекер *** (ex torrents.ru)
Comment : пер. Red Media
Video
ID : 0
Format : MPEG-4 Visual
Format profile : Advanced Simple@L5
Format settings, BVOP : 2
Format settings, QPel : No
Format settings, GMC : No warppoints
Format settings, Matrix : Default (H.263)
Codec ID : XVID
Codec ID/Hint : XviD
Duration : 2h 14mn
Bit rate : 1 412 Kbps
Width : 720 pixels
Height : 320 pixels
Display aspect ratio : 2.25:1
Frame rate : 23.976 fps
Color space : YUV
Chroma subsampling : 4:2:0
Bit depth : 8 bits
Scan type : Progressive
Compression mode : Lossy
Bits/(Pixel*Frame) : 0.256
Stream size : 1.32 GiB (91%)
Writing library : XviD 1.2.1 (UTC 2008-12-04)
Audio
ID : 1
Format : MPEG Audio
Format version : Version 1
Format profile : Layer 3
Mode : Joint stereo
Codec ID : 55
Codec ID/Hint : MP3
Duration : 2h 14mn
Bit rate mode : Constant
Bit rate : 128 Kbps
Channel(s) : 2 channels
Sampling rate : 48.0 KHz
Compression mode : Lossy
Stream size : 123 MiB (8%)
Alignment : Aligned on interleaves
Interleave, duration : 42 ms (1.00 video frame)
Interleave, preload duration : 504 ms
Writing library : LAME3.90.3
Скачать

Скачать торрент! С пылу, с жару / Жара / Seema Tapakai (Г. Нагешвара Редди / G. Nageswara Reddy ) [2011, Индия, Комедия, WEB-DLRip] MVO (Red Media)

Как скачивать? · Что такое торрент? · Рейтинг и ограничения

Сайт не распространяет и не хранит электронные версии произведений, а лишь предоставляет доступ к создаваемому пользователями каталогу ссылок на торрент-файлы, которые содержат только списки хеш-сумм

[Профиль] [ЛС]
Показать сообщения:    
Ответить на тему

Текущее время: Сегодня 18:17

Часовой пояс: GMT + 4



Вы не можете начинать темы
Вы не можете отвечать на сообщения
Вы не можете редактировать свои сообщения
Вы не можете удалять свои сообщения
Вы не можете голосовать в опросах
Вы не можете прикреплять файлы к сообщениям
Вы не можете скачивать файлы