Ровер / The Rover (Дэвид Мишо / David Michod) [2014, Австралия, США, драма, криминал, BDRip-AVC] MVO + Original Eng

Ответить на тему
 
Автор Сообщение

user ®

Стаж: 7 лет 7 месяцев

Сообщений: 20008

Пост Пост: #1 от 10-Янв-2015 11:12

[Цитировать]

Ровер
The Rover

Страна: Австралия, США
Жанр: драма, криминал
Год выпуска: 2014
Продолжительность: 01:42:53
Перевод: Профессиональный (многоголосый закадровый) [Лицензия]
Cубтитры: нет
Оригинальная аудиодорожка: английский
Режиссер: Дэвид Мишо / David Michôd
В ролях: Гай Пирс, Роберт Паттинсон, Чан Кьень, Тек Конг Лим, Таванда Маниймо, Скут МакНэйри, Дэвид Филд, Скотт Перри, Ричард Грин, Бен Армер
Описание: Через 10 лет после глобального экономического коллапса закаленный герой-одиночка преследует банду, угнавшую его автомобиль.

Сэмпл: http://sendfile.su/1064407
Качество видео: BDRip-AVC [The Rover (2014) 1080p BD-Remux. hdclub]
Формат видео: MKV
Видео: AVC, 1152 x 480 (2,40:1), 1985 kbps, 23,976 fps, 0,150 bpp
Аудио: AC3, 6ch, 48 kHz, 448 kbps, 16 bit
Аудио 2: AC3, 6ch, 48 kHz, 448 kbps, 16 bit
MediaInfo
Уникальный идентификатор : 231804343325001489099567941013027880598 (0xAE63E481C09B104C92B023BB8332FE96)
Полное имя : F:\Films\Rover\T2.mkv
Формат : Matroska
Версия формата : Version 2
Размер файла : 2,06 Гбайт
Продолжительность : 1 ч. 42 м.
Общий поток : 2863 Кбит/сек
Дата кодирования : UTC 2014-11-27 17:04:48
Программа кодирования : mkvmerge v6.9.1 ('Blue Panther') 32bit built on Apr 18 2014 18:15:44
Библиотека кодирования : libebml v1.3.0 + libmatroska v1.4.1
Видео
Идентификатор : 1
Формат : AVC
Формат/Информация : Advanced Video Codec
Профиль формата : High@L4.1
Параметр CABAC формата : Да
Параметр ReFrames формата : 8 кадров
Идентификатор кодека : V_MPEG4/ISO/AVC
Продолжительность : 1 ч. 42 м.
Битрейт : 1985 Кбит/сек
Ширина : 1152 пикселя
Высота : 480 пикселей
Соотношение сторон : 2,40:1
Режим частоты кадров : Постоянный
Частота кадров : 23,976 кадра/сек
Цветовое пространство : YUV
Субдискретизация насыщенности : 4:2:0
Битовая глубина : 8 бит
Тип развёртки : Прогрессивная
Бит/(Пиксели*Кадры) : 0.150
Размер потока : 1,37 Гбайт (67%)
Библиотека кодирования : x264 core 138 r2358 9e941d1
Настройки программы : cabac=1 / ref=8 / deblock=1:-2:-1 / analyse=0x3:0x133 / me=umh / subme=9 / psy=1 / psy_rd=1.00:0.05 / mixed_ref=0 / me_range=32 / chroma_me=1 / trellis=2 / 8x8dct=1 / cqm=0 / deadzone=21,11 / fast_pskip=0 / chroma_qp_offset=-3 / threads=4 / lookahead_threads=1 / sliced_threads=0 / nr=0 / decimate=0 / interlaced=0 / bluray_compat=0 / constrained_intra=0 / bframes=12 / b_pyramid=2 / b_adapt=2 / b_bias=0 / direct=1 / weightb=1 / open_gop=0 / weightp=2 / keyint=240 / keyint_min=23 / scenecut=40 / intra_refresh=0 / rc=2pass / mbtree=0 / bitrate=1985 / ratetol=1.0 / qcomp=0.60 / qpmin=10 / qpmax=69 / qpstep=4 / cplxblur=20.0 / qblur=0.5 / ip_ratio=1.40 / pb_ratio=1.30 / aq=1:1.00
Язык : English
Default : Да
Forced : Нет
Аудио #1
Идентификатор : 2
Формат : AC-3
Формат/Информация : Audio Coding 3
Расширение режима : CM (complete main)
Параметр Endianness формата : Big
Идентификатор кодека : A_AC3
Продолжительность : 1 ч. 42 м.
Вид битрейта : Постоянный
Битрейт : 448 Кбит/сек
Каналы : 6 каналов
Расположение каналов : Front: L C R, Side: L R, LFE
Частота : 48,0 КГц
Битовая глубина : 16 бит
Метод сжатия : С потерями
Размер потока : 330 Мбайт (16%)
Заголовок : Профессиональный (многоголосый закадровый) [Лицензия]
Язык : Russian
Default : Да
Forced : Нет
Аудио #2
Идентификатор : 3
Формат : AC-3
Формат/Информация : Audio Coding 3
Расширение режима : CM (complete main)
Параметр Endianness формата : Big
Идентификатор кодека : A_AC3
Продолжительность : 1 ч. 42 м.
Вид битрейта : Постоянный
Битрейт : 448 Кбит/сек
Каналы : 6 каналов
Расположение каналов : Front: L C R, Side: L R, LFE
Частота : 48,0 КГц
Битовая глубина : 16 бит
Метод сжатия : С потерями
Размер потока : 330 Мбайт (16%)
Заголовок : Английский
Default : Нет
Forced : Да
Скриншот c названием фильма Скриншоты Возраст
16+ - зрителям, достигшим 16 лет
Рейтинг MPAA
R- лицам до 17 лет обязательно присутствие взрослого
Скачать

Скачать торрент!

Как скачивать? · Что такое торрент? · Рейтинг и ограничения

Сайт не распространяет и не хранит электронные версии произведений, а лишь предоставляет доступ к создаваемому пользователями каталогу ссылок на торрент-файлы, которые содержат только списки хеш-сумм

[Профиль] [ЛС]
Показать сообщения:    
Ответить на тему

Текущее время: Сегодня 13:38

Часовой пояс: GMT + 4



Вы не можете начинать темы
Вы не можете отвечать на сообщения
Вы не можете редактировать свои сообщения
Вы не можете удалять свои сообщения
Вы не можете голосовать в опросах
Вы не можете прикреплять файлы к сообщениям
Вы не можете скачивать файлы