Карающий / Aadmi (Эршад Кхан / Arshad Khan) [1993, Индия, Мелодрама, боевик, DVDRip] DVO (Zee Tv) + AVO (Сонькин)

Ответить на тему
 
Автор Сообщение

user ®

Стаж: 12 лет

Сообщений: 15092

Пост Пост: #1 от 10-Янв-2015 05:03

[Цитировать]

Карающий / Aadmi
Страна: Индия
Жанр: Мелодрама, боевик
Год выпуска: 1993
Продолжительность: 02:34:18
Перевод: Профессиональный (двухголосый закадровый) Zee Tv
Перевод 2: Авторский (одноголосый закадровый) Владимир Сонькин
Cубтитры: нет
Режиссер: Эршад Кхан / Arshad Khan
В ролях: Митхун Чакраборти, Гаутами, Шакти Капур, Гульшан Гровер, Боб Кристо, Аджит, Раза Мурад, Хариш, Пареш Раваль, Далип Тахил, Швета, Махавир Шах, Тедж Сапру, Юнус Парвез, Анджана Мумтаз, Мак Мохан, Муштак Кхан, Джавед Кхан
Описание: Начальник охраны Виджай Шривастав попадает за решетку по обвинению в убийстве своих родителей и младшего брата. На самом деле их убили бандиты, которым Виджай мешал продавать оружие. Виджай бежит из тюрьмы, чтобы самому покарать преступников...
Доп. информация: Релиз: Кинозал.ТВ
Сведение звука: oktober (Спасибо!)
Сэмпл: http://multi-up.com/1025548
Качество видео: DVDRip
Формат видео: AVI
Видео: XviD build 37, 608x320 (1.90:1), 29.970 fps, 1638 kbps avg
Аудио: MPEG Layer 3, 48 kHz, 2/0 (L,R) ch, 128.00 kbps avg - DVO
Аудио 2: MPEG Layer 3, 48 kHz, 2/0 (L,R) ch, 128.00 kbps avg - AVO
MediaInfo
General
Complete name : F:\Karayushiy.1993.DVDRip.XviD.Oktober.avi
Format : AVI
Format/Info : Audio Video Interleave
Format profile : OpenDML
File size : 2.05 GiB
Duration : 2h 34mn
Overall bit rate : 1 902 Kbps
Writing application : VirtualDubMod 1.5.10.2 (build 2540/release)
Writing library : VirtualDubMod build 2540/release
Video
ID : 0
Format : MPEG-4 Visual
Format profile : AdvancedSimple@L5
Format settings, BVOP : Yes
Format settings, QPel : No
Format settings, GMC : No warppoints
Format settings, Matrix : Default (H.263)
Muxing mode : Packed bitstream
Codec ID : XVID
Codec ID/Hint : XviD
Duration : 2h 34mn
Bit rate : 1 623 Kbps
Width : 608 pixels
Height : 320 pixels
Display aspect ratio : 1.900
Frame rate : 29.970 fps
Resolution : 24 bits
Colorimetry : 4:2:0
Scan type : Progressive
Bits/(Pixel*Frame) : 0.278
Stream size : 1.75 GiB (85%)
Writing library : XviD 1.0.3 (UTC 2004-12-20)
Audio #1
ID : 1
Format : MPEG Audio
Format version : Version 1
Format profile : Layer 3
Codec ID : 55
Codec ID/Hint : MP3
Duration : 2h 34mn
Bit rate mode : Constant
Bit rate : 128 Kbps
Channel(s) : 2 channels
Sampling rate : 48.0 KHz
Resolution : 16 bits
Stream size : 141 MiB (7%)
Alignment : Aligned on interleaves
Interleave, duration : 33 ms (1.00 video frame)
Interleave, preload duration : 504 ms
Writing library : LAME3.98.2
Audio #2
ID : 2
Format : MPEG Audio
Format version : Version 1
Format profile : Layer 3
Codec ID : 55
Codec ID/Hint : MP3
Duration : 2h 34mn
Bit rate mode : Constant
Bit rate : 128 Kbps
Channel(s) : 2 channels
Sampling rate : 48.0 KHz
Resolution : 16 bits
Stream size : 141 MiB (7%)
Alignment : Aligned on interleaves
Interleave, duration : 33 ms (1.00 video frame)
Interleave, preload duration : 504 ms
Скриншоты
Скачать

Скачать торрент! Карающий / Aadmi (Эршад Кхан / Arshad Khan) [1993, Индия, Мелодрама, боевик, DVDRip] DVO (Zee Tv) + AVO (Сонькин)

Как скачивать? · Что такое торрент? · Рейтинг и ограничения

Сайт не распространяет и не хранит электронные версии произведений, а лишь предоставляет доступ к создаваемому пользователями каталогу ссылок на торрент-файлы, которые содержат только списки хеш-сумм

[Профиль] [ЛС]
Показать сообщения:    
Ответить на тему

Текущее время: Сегодня 11:55

Часовой пояс: GMT + 4



Вы не можете начинать темы
Вы не можете отвечать на сообщения
Вы не можете редактировать свои сообщения
Вы не можете удалять свои сообщения
Вы не можете голосовать в опросах
Вы не можете прикреплять файлы к сообщениям
Вы не можете скачивать файлы