Люди Икс: Дни минувшего будущего / X-Men: Days of Future Past (Брайан Сингер / Bryan Singer) [2014, США, Великобритания, фантастика, боевик, триллер, приключения, BDRip] AVO Живов

Ответить на тему
 
Автор Сообщение

user ®

Стаж: 7 лет 7 месяцев

Сообщений: 20008

Пост Пост: #1 от 10-Янв-2015 05:03

[Цитировать]

Люди Икс: Дни минувшего будущего
X-Men: Days of Future Past
- Страна: США, Великобритания
Жанр: фантастика, боевик, триллер, приключения
Год выпуска: 2014
Продолжительность: 02:11:35
Перевод: Авторский (одноголосый закадровый) Живов
Cубтитры: нет-Режиссер: Брайан Сингер / Bryan Singer
Сценарий: Саймон Кинберг / Simon Kinberg, Джейн Голдман / Jane Goldman
Продюсер: Саймон Кинберг / Simon Kinberg, Хатч Паркер / Hutch Parker
Оператор: Ньютон Томас Сигел / Newton Thomas Sigel
Композитор: Джон Оттмен / John Ottman-В ролях: Хью Джекман (Logan / Wolverine), Джеймс МакЭвой (Charles Xavier), Майкл Фассбендер (Erik Lehnsherr), Дженнифер Лоуренс (Raven / Mystique), Холли Берри (Storm), Николас Холт (Hank / Beast), Анна Пэкуин (Rogue), Эллен Пейдж (Kitty Pryde), Питер Динклэйдж (Dr. Bolivar Trask), Шон Эшмор (Bobby / Iceman).-Описание: В недалёком будущем мутанты близки к истреблению роботами-охотниками на мутантов Стражами. Единственная надежда для мутантов выжить - предотвратить череду роковых событий, приведших к появлению Стражей. С помощью своих способностей, Китти Прайд перемещает сознание Росомахи в его молодое тело в 1973 год. В прошлом всё оказывается не так радужно: молодой Профессор Икс окончательно разочарован в своих идеях, Магнето содержится в тюрьме глубоко под землёй, а человечество не знает как реагировать на широкое появление мутантов...-Качество видео: BDRip | Volkigor (Исходник Blu-ray disc CEE 1080p)
Формат видео: AVI | Sample
Видео: 720x304 (2.37:1), 23.976 fps, XviD build 65 ~1910 kbps avg, 0.36 bit/pixel
Аудио: 48 kHz, AC3 Dolby Digital, 3/2 (L,C,R,l,r) + LFE ch, ~448.00 kbps avg | AVO

Инфо
Формат : AVI
Формат/Информация : Audio Video Interleave
Профиль формата : OpenDML
Размер файла : 2,17 Гбайт
Продолжительность : 2 ч. 11 м.
Общий поток : 2366 Кбит/сек
Программа кодирования : VirtualDubModRus 1.5.10.2 (build 2542/release)
Библиотека кодирования : VirtualDubMod build 2542/release
Видео
Идентификатор : 0
Формат : MPEG-4 Visual
Профиль формата : Advanced Simple@L5
Параметр BVOP формата : 1
Параметр QPel формата : Нет
Параметр GMC формата : Без точки перехода
Параметр матрицы формата : Выборочная
Идентификатор кодека : XVID
Идентификатор кодека/Подсказка : XviD
Продолжительность : 2 ч. 11 м.
Битрейт : 1906 Кбит/сек
Ширина : 720 пикселей
Высота : 304 пикселя
Соотношение сторон : 2,35:1
Частота кадров : 23,976 кадра/сек
Цветовое пространство : YUV
Субдискретизация насыщенности : 4:2:0
Битовая глубина : 8 бит
Тип развёртки : Прогрессивная
Метод сжатия : С потерями
Бит/(Пиксели*Кадры) : 0.363
Размер потока : 1,75 Гбайт (81%)
Библиотека кодирования : XviD 65
Аудио
Идентификатор : 1
Формат : AC-3
Формат/Информация : Audio Coding 3
Расширение режима : CM (complete main)
Параметр Endianness формата : Big
Идентификатор кодека : 2000
Продолжительность : 2 ч. 11 м.
Вид битрейта : Постоянный
Битрейт : 448 Кбит/сек
Каналы : 6 каналов
Расположение каналов : Front: L C R, Side: L R, LFE
Частота : 48,0 КГц
Битовая глубина : 16 бит
Метод сжатия : С потерями
Размер потока : 422 Мбайт (19%)
Выравнивание : Разделение по промежуткам
Продолжительность промежутка : 42 мс. (1,00 видеокадр)
Время предзагрузки промежутка : 500 мс.
Скриншоты
Скачать

Скачать торрент!

Как скачивать? · Что такое торрент? · Рейтинг и ограничения

Сайт не распространяет и не хранит электронные версии произведений, а лишь предоставляет доступ к создаваемому пользователями каталогу ссылок на торрент-файлы, которые содержат только списки хеш-сумм

[Профиль] [ЛС]
Показать сообщения:    
Ответить на тему

Текущее время: Сегодня 09:54

Часовой пояс: GMT + 4



Вы не можете начинать темы
Вы не можете отвечать на сообщения
Вы не можете редактировать свои сообщения
Вы не можете удалять свои сообщения
Вы не можете голосовать в опросах
Вы не можете прикреплять файлы к сообщениям
Вы не можете скачивать файлы