Агенты Сокол и Снеговик / The Falcon and the Snowman (Джон Шлезингер / John Schlesinger) [1985, Великобритания, США, триллер, драма, криминал, биография, BDRip 720p] 2x MVO + Sub Eng + Original Eng

Ответить на тему
 
Автор Сообщение

user ®

Стаж: 7 лет 7 месяцев

Сообщений: 20008

Пост Пост: #1 от 10-Янв-2015 01:57

[Цитировать]

Агенты Сокол и Снеговик / The Falcon and the Snowman Страна: Великобритания, США
Студия: Hemdale Films
Жанр: триллер, драма, криминал, биография
Год выпуска: 1985
Продолжительность: 02:11:30
Перевод 1: Профессиональный (многоголосый закадровый) [ТРК "Петербург - 5 канал"]
Перевод 2: Профессиональный (многоголосый закадровый) ["Селена интернешнл" по заказу ОРТ, VHS]
Cубтитры: английские (х2)
Оригинальная аудиодорожка: английский
Режиссер: Джон Шлезингер / John Schlesinger
В ролях: Тимоти Хаттон, Шон Пенн, Дэвид Суше, Борис Лескин, Пэт Хингл, Джойс Ван Паттен, Лори Сингер, Роб Рид, Роб Ньюэлл, Карен Уэст, Арт Камачо, Энни Козач, Ричард А. Дайсарт, Присцилла Пойнтер, Крис Мейкпис, Дориан Хэрвуд, Джерри Хардин, Джордж С. Грант, Анатолий Давыдов, Дженнифер Раньон, Дэниэл МакДональд, Марвин Дж. МакИнтайр, Сэм Инграффиа, Майкл Айронсайд, Валери Уайлдмен
Описание: В основу сюжета легла реальная история, произошедшая в США в 70-е годы, в самый разгар «холодной войны». Молодой государственный служащий Кристофер Бойс имеет доступ к сверхсекретным документам. То, что он узнает, полностью меняет его отношение к своей стране. От слепого патриотизма не остается и следа. Вместе со своим приятелем Долтоном он решает продавать военные секреты Советскому Союзу. Поначалу их шпионская деятельность больше похожа на комедию, но это не может продолжаться долго. Последствия оказываются драматическими.- -Тип релиза: BDRip 720p (Исходник: Blu-ray (US) / 1080p / AVC / 23,976 fps / 20959 kbps / DTS-HD MA 2.0 16-bit 1579 kbps]
Контейнер: MKV
Видео: MPEG-4 AVC Video, 1280x692 / 1,85:1 (16:9) / 6380 kbps / 23,976 fps / High@L4.1 / 2pass
Аудио 1: Russian: AC3, 2.0 ch, 192 kbps, 48 kHz | 5 канал [[url=http://***/forum/viewtopic.php?t=1115588]DVDRip[/url]]
Аудио 2: Russian: AC3, 2.0 ch, 192 kbps, 48 kHz | Селена интернешнл [[url=http://***/forum/viewtopic.php?t=4730303]DVDRip - JUSTKANT[/url]]
Аудио 3: English: DTS, 2.0 ch, 16-bit, 1509 kbps, 48 kHz
Формат субтитров: softsub (SRT)
Главы:
х264 Log
x264 [info]: frame I:1293 Avg QP:15.23 size:110264
x264 [info]: frame P:37680 Avg QP:17.17 size: 50232
x264 [info]: frame B:150213 Avg QP:18.63 size: 28335
x264 [info]: consecutive B-frames: 1.3% 1.6% 5.2% 15.2% 17.0% 48.6% 6.8% 1.9% 1.4% 0.6% 0.5%
MediaInfo
Общее
Уникальный идентификатор : 246007769278726764702818436740987760040 (0xB9135F7908AD1BC3858AB665616C2DA8)
Полное имя : N:\Агенты Сокол и Снеговик 1985.BDRip.720p.2хПМ.Eng.mkv
Формат : Matroska
Версия формата : Version 4 / Version 2
Размер файла : 7,60 Гбайт
Продолжительность : 2 ч. 11 м.
Общий поток : 8275 Кбит/сек
Название фильма : The Falcon and the Snowman (1985)
Дата кодирования : UTC 2015-01-08 05:41:49
Программа кодирования : mkvmerge v7.5.0 ('Glass Culture') 32bit built on Jan 4 2015 16:37:25
Библиотека кодирования : libebml v1.3.1 + libmatroska v1.4.2
Видео
Идентификатор : 1
Формат : AVC
Формат/Информация : Advanced Video Codec
Профиль формата : High@L4.1
Параметр CABAC формата : Да
Параметр ReFrames формата : 9 кадров
Идентификатор кодека : V_MPEG4/ISO/AVC
Продолжительность : 2 ч. 11 м.
Битрейт : 6380 Кбит/сек
Ширина : 1280 пикселей
Высота : 692 пикселя
Соотношение сторон : 1,85:1
Режим частоты кадров : Постоянный
Частота кадров : 23,976 кадра/сек
Цветовое пространство : YUV
Субдискретизация насыщенности : 4:2:0
Битовая глубина : 8 бит
Тип развёртки : Прогрессивная
Бит/(Пиксели*Кадры) : 0.300
Размер потока : 5,71 Гбайт (75%)
Библиотека кодирования : x264 core 133 r2334 a3ac64b
Настройки программы : cabac=1 / ref=9 / deblock=1:-2:-2 / analyse=0x3:0x133 / me=umh / subme=10 / psy=1 / psy_rd=0.95:0.00 / mixed_ref=1 / me_range=32 / chroma_me=1 / trellis=2 / 8x8dct=1 / cqm=0 / deadzone=21,11 / fast_pskip=0 / chroma_qp_offset=-2 / threads=6 / lookahead_threads=1 / sliced_threads=0 / nr=0 / decimate=1 / interlaced=0 / bluray_compat=0 / constrained_intra=0 / bframes=10 / b_pyramid=2 / b_adapt=2 / b_bias=0 / direct=3 / weightb=1 / open_gop=0 / weightp=2 / keyint=240 / keyint_min=23 / scenecut=40 / intra_refresh=0 / rc_lookahead=60 / rc=2pass / mbtree=0 / bitrate=6380 / ratetol=1.0 / qcomp=0.60 / qpmin=0 / qpmax=56 / qpstep=4 / cplxblur=20.0 / qblur=0.5 / vbv_maxrate=50000 / vbv_bufsize=62500 / nal_hrd=none / ip_ratio=1.30 / pb_ratio=1.20 / aq=1:0.80
Язык : English
Default : Да
Forced : Нет
Аудио #1
Идентификатор : 2
Формат : AC-3
Формат/Информация : Audio Coding 3
Расширение режима : CM (complete main)
Параметр Endianness формата : Big
Идентификатор кодека : A_AC3
Продолжительность : 2 ч. 11 м.
Вид битрейта : Постоянный
Битрейт : 192 Кбит/сек
Каналы : 2 канала
Расположение каналов : Front: L R
Частота : 48,0 КГц
Битовая глубина : 16 бит
Метод сжатия : С потерями
Размер потока : 181 Мбайт (2%)
Заголовок : AC3 2.0ch 192kbps - многоголосый (ТРК "Петербург 5 канал")
Язык : Russian
Default : Да
Forced : Нет
Аудио #2
Идентификатор : 3
Формат : AC-3
Формат/Информация : Audio Coding 3
Расширение режима : CM (complete main)
Параметр Endianness формата : Big
Идентификатор кодека : A_AC3
Продолжительность : 2 ч. 11 м.
Вид битрейта : Постоянный
Битрейт : 192 Кбит/сек
Каналы : 2 канала
Расположение каналов : Front: L R
Частота : 48,0 КГц
Битовая глубина : 16 бит
Метод сжатия : С потерями
Размер потока : 181 Мбайт (2%)
Заголовок : AC3 2.0ch 192kbps - многоголосый ("Селена интернешнл" по заказу ОРТ)
Язык : Russian
Default : Нет
Forced : Нет
Аудио #3
Идентификатор : 4
Формат : DTS
Формат/Информация : Digital Theater Systems
Режим : 16
Параметр Endianness формата : Big
Идентификатор кодека : A_DTS
Продолжительность : 2 ч. 11 м.
Вид битрейта : Постоянный
Битрейт : 1509 Кбит/сек
Каналы : 2 канала
Расположение каналов : Front: L R
Частота : 48,0 КГц
Битовая глубина : 16 бит
Метод сжатия : С потерями
Размер потока : 1,39 Гбайт (18%)
Заголовок : DTS 2.0ch 16-bit 1509kbps - original (DTS-HD MA 2/16/1579)
Язык : English
Default : Нет
Forced : Нет
Текст #1
Идентификатор : 5
Формат : UTF-8
Идентификатор кодека : S_TEXT/UTF8
Идентификатор кодека/Информация : UTF-8 Plain Text
Язык : English
Default : Нет
Forced : Нет
Текст #2
Идентификатор : 6
Формат : UTF-8
Идентификатор кодека : S_TEXT/UTF8
Идентификатор кодека/Информация : UTF-8 Plain Text
Заголовок : full (+ music)
Язык : English
Default : Нет
Forced : Нет
Меню
00:00:00.000 : en: 00:00:00
00:12:51.521 : en: 00:12:51
00:38:14.125 : en: 00:38:14
00:54:25.053 : en: 00:54:25
01:07:28.753 : en: 01:07:28
01:21:06.653 : en: 01:21:06
01:28:36.895 : en: 01:28:36
01:51:59.630 : en: 01:51:59

-
Скриншот с названием фильма Скриншоты

доп. скриншоты
Скачать

Скачать торрент!

Как скачивать? · Что такое торрент? · Рейтинг и ограничения

Сайт не распространяет и не хранит электронные версии произведений, а лишь предоставляет доступ к создаваемому пользователями каталогу ссылок на торрент-файлы, которые содержат только списки хеш-сумм

[Профиль] [ЛС]
Показать сообщения:    
Ответить на тему

Текущее время: Сегодня 18:15

Часовой пояс: GMT + 4



Вы не можете начинать темы
Вы не можете отвечать на сообщения
Вы не можете редактировать свои сообщения
Вы не можете удалять свои сообщения
Вы не можете голосовать в опросах
Вы не можете прикреплять файлы к сообщениям
Вы не можете скачивать файлы