Прикуп / The Take (Дэвид Друри / David Drury) [2009, Великобритания, триллер, драма, криминал, BDRip 1080p] AVO (Ю. Сербин) + Sub Eng Rus + Original Eng

Ответить на тему
 
Автор Сообщение

user ®

Стаж: 7 лет 7 месяцев

Сообщений: 20008

Пост Пост: #1 от 10-Янв-2015 01:57

[Цитировать]

Прикуп (мини-сериал) / The Take
«He's got family, he's got power, but he's got issues»
-Страна: Великобритания
Жанр: триллер, драма, криминал
Год выпуска: 2009
Продолжительность: 02:53:05
Перевод: Авторский (одноголосый закадровый) Ю.Сербин
Cубтитры: русские, английские
Оригинальная аудиодорожка: английский
Режиссер: Дэвид Друри
В ролях: Шон Эванс , Том Харди , Шарлотта Райли , Кирстон Вэрэйнг , Марго Лейкестер , Брайан Кокс , Джейн Вуд , Стив Николсон , Джон Эштон , Меган Джосса , Аннетт Келли , Сара Стюарт
Описание: Экранизация одного из бестселлеров известной британской писательницы Мартины Коул. «Прикуп» - это захватывающая драма о любви, власти, ревности и предательстве. Фредди Джексон только что вышел из тюрьмы. Он отсидел срок, наладил нужные связи и теперь готов вместе со своим преданным кузеном Джимми бросить вызов всему миру, не останавливаясь ни перед кем и ни перед чем.

Качество: BDRip 1080p
Контейнер: MKV
Видео: MPEG-4 AVC, 1920x1080, (16:9), 11501 Кбит/сек, 25 кадр/сек
Аудио 1: русский / DTS / 5.1 / 48 kHz / 1510 kbps |Авторский одноголосый, Ю.Сербин|
Аудио 2: английский / DTS / 5.1 / 48 kHz / 1510 kbps
Формат субтитров: softsub (SRT)

Автор рипа: _denis_100
Сообщество: NNNB
MediaInfo
Format : Matroska
Format version : Version 2
File size : 17.6 GiB
Duration : 2h 53mn
Overall bit rate : 14.5 Mbps
Movie name : Prikup (mini-serial).(2009).BDRip.1080p.[denis100]
Encoded date : UTC 2015-01-08 14:16:26
Writing application : mkvmerge v5.8.0 ('No Sleep / Pillow') built on Sep 2 2012 15:37:04
Writing library : libebml v1.2.3 + libmatroska v1.3.0
Video
ID : 1
Format : AVC
Format/Info : Advanced Video Codec
Format profile : High@L4.1
Format settings, CABAC : Yes
Format settings, ReFrames : 4 frames
Codec ID : V_MPEG4/ISO/AVC
Duration : 2h 53mn
Bit rate : 11.5 Mbps
Width : 1 920 pixels
Height : 1 080 pixels
Display aspect ratio : 16:9
Frame rate mode : Constant
Frame rate : 25.000 fps
Color space : YUV
Chroma subsampling : 4:2:0
Bit depth : 8 bits
Scan type : Progressive
Bits/(Pixel*Frame) : 0.222
Stream size : 13.6 GiB (77%)
Title : Prikup (mini-serial).(2009).BDRip.1080p.[denis100]
Writing library : x264 core 142 r2491 24e4fed
Encoding settings : cabac=1 / ref=4 / deblock=1:-3:-3 / analyse=0x3:0x133 / me=umh / subme=11 / psy=1 / psy_rd=1.00:0.10 / mixed_ref=1 / me_range=32 / chroma_me=1 / trellis=2 / 8x8dct=1 / cqm=0 / deadzone=21,11 / fast_pskip=0 / chroma_qp_offset=-3 / threads=6 / lookahead_threads=1 / sliced_threads=0 / nr=0 / decimate=1 / interlaced=0 / bluray_compat=0 / constrained_intra=0 / bframes=7 / b_pyramid=2 / b_adapt=2 / b_bias=0 / direct=3 / weightb=1 / open_gop=0 / weightp=2 / keyint=250 / keyint_min=24 / scenecut=40 / intra_refresh=0 / rc=2pass / mbtree=0 / bitrate=11501 / ratetol=1.0 / qcomp=0.60 / qpmin=0 / qpmax=69 / qpstep=4 / cplxblur=20.0 / qblur=0.5 / ip_ratio=1.40 / pb_ratio=1.30 / aq=1:0.90
Language : English
Default : Yes
Forced : No
Audio #1
ID : 2
Format : DTS
Format/Info : Digital Theater Systems
Mode : 16
Format settings, Endianness : Big
Codec ID : A_DTS
Duration : 2h 53mn
Bit rate mode : Constant
Bit rate : 1 509 Kbps
Channel(s) : 6 channels
Channel positions : Front: L C R, Side: L R, LFE
Sampling rate : 48.0 KHz
Bit depth : 16 bits
Compression mode : Lossy
Stream size : 1.82 GiB (10%)
Title : DTS 5.1 @ 1.5 Mbps – Одноголосый закадровый (Ю.Сербин)
Language : Russian
Default : Yes
Forced : No
Audio #2
ID : 3
Format : DTS
Format/Info : Digital Theater Systems
Mode : 16
Format settings, Endianness : Big
Codec ID : A_DTS
Duration : 2h 53mn
Bit rate mode : Constant
Bit rate : 1 509 Kbps
Channel(s) : 6 channels
Channel positions : Front: L C R, Side: L R, LFE
Sampling rate : 48.0 KHz
Bit depth : 16 bits
Compression mode : Lossy
Stream size : 1.82 GiB (10%)
Title : DTS 5.1 @ 1.5 Mbps
Language : English
Default : No
Forced : No
Text #1
ID : 4
Format : UTF-8
Codec ID : S_TEXT/UTF8
Codec ID/Info : UTF-8 Plain Text
Title : Russian
Language : Russian
Default : No
Forced : No
Text #2
ID : 5
Format : UTF-8
Codec ID : S_TEXT/UTF8
Codec ID/Info : UTF-8 Plain Text
Title : English
Language : English
Default : No
Forced : No
Menu
00:00:00.000 : en:00:00:00.000
00:13:57.040 : en:00:13:57.040
00:28:26.280 : en:00:28:26.280
00:41:09.040 : en:00:41:09.040
00:55:00.400 : en:00:55:00.400
01:10:10.680 : en:01:10:10.680
01:25:50.320 : en:01:25:50.320
01:36:07.280 : en:01:36:07.280
01:51:21.680 : en:01:51:21.680
02:08:08.680 : en:02:08:08.680
02:23:33.560 : en:02:23:33.560
02:39:44.120 : en:02:39:44.120
x264
x264 [info]: frame I:1954 Avg QP:14.29 size:205388
x264 [info]: frame P:54819 Avg QP:16.64 size:110508
x264 [info]: frame B:202867 Avg QP:18.66 size: 41751
Скриншоты
Скачать

Скачать торрент!

Как скачивать? · Что такое торрент? · Рейтинг и ограничения

Сайт не распространяет и не хранит электронные версии произведений, а лишь предоставляет доступ к создаваемому пользователями каталогу ссылок на торрент-файлы, которые содержат только списки хеш-сумм

[Профиль] [ЛС]
Показать сообщения:    
Ответить на тему

Текущее время: Сегодня 07:50

Часовой пояс: GMT + 4



Вы не можете начинать темы
Вы не можете отвечать на сообщения
Вы не можете редактировать свои сообщения
Вы не можете удалять свои сообщения
Вы не можете голосовать в опросах
Вы не можете прикреплять файлы к сообщениям
Вы не можете скачивать файлы