Мечты из пластилина (Максим Мехеда) [2012, Мелодрама, драма, криминал, WEB-DLRip]

Ответить на тему
 
Автор Сообщение

user ®

Стаж: 7 лет 7 месяцев

Сообщений: 20008

Пост Пост: #1 от 10-Янв-2015 01:57

[Цитировать]

Мечты из пластилина
Жанр: Мелодрама, драма, криминал
Год выпуска: 2012
Продолжительность: 01:27:04
Режиссёр: Максим Мехеда
В ролях: Игорь Петренко, Екатерина Климова, Алексей Комашко, Поля Полякова, Александр Мохов, Александр Кобзарь, Александра Киреева, Нина Антонова, Григорий Боковенко, Александр Бондаренко
Описание: Куда приводят детские мечты? И стоит ли быть зависимым от иллюзий. 8-ми летняя Оксана влюбляется в сотрудника своего отца, 25-ти летнего красавца Бориса. Он, в шутку обещает подождать, пока девочка вырастет и жениться на ней. Слово Борис не сдерживает, и жениться на своей сверстнице Вике. Оксана по детски драматично переживает это.
Она обещает себе, что во что бы то ни стало, завоюет Бориса. По совету бабушки, девочка лепит свою мечту из пластилина. Спустя почти 10 лет она горько пожалеет о своем желании. Чтобы распознать истинные чувства, девушке придется пережить крах семейного бизнеса, потерю самого близкого и любящего человека. Лишь избавившись от навязчивой идеи детства, Оксана обретет счастье.

Качество видео: WEB-DLRip [Исходник: WEB-DL (1080p)]
Формат видео: AVI
Видео: XviD, 656x368 (16:9), 1058 Кбит/с, 25 кадр/с
Аудио: Русский, MP3, 48000 Гц, 128 кбит/с, 2 канала (Стерео)

Автор рипа - ivandubskoj
MediaInfo
General
Complete name : Mechty.iz.plastilina.2012.WEB-DLRip.745MB.avi
Format : AVI
Format/Info : Audio Video Interleave
File size : 745 MiB
Duration : 1h 27mn
Overall bit rate : 1 196 Kbps
Writing application : VirtualDubMod 1.5.10.3 (build 2550/release)
Writing library : VirtualDubMod build 2550/release
Copyright : rip by ivandubskoj
Video
ID : 0
Format : MPEG-4 Visual
Format profile : Advanced Simple@L5
Format settings, BVOP : 2
Format settings, QPel : No
Format settings, GMC : No warppoints
Format settings, Matrix : Custom
Codec ID : XVID
Codec ID/Hint : XviD
Duration : 1h 27mn
Bit rate : 1 058 Kbps
Width : 656 pixels
Height : 368 pixels
Display aspect ratio : 16:9
Frame rate : 25.000 fps
Color space : YUV
Chroma subsampling : 4:2:0
Bit depth : 8 bits
Scan type : Progressive
Compression mode : Lossy
Bits/(Pixel*Frame) : 0.175
Stream size : 659 MiB (88%)
Writing library : XviD 73
Audio
ID : 1
Format : MPEG Audio
Format version : Version 1
Format profile : Layer 3
Codec ID : 55
Codec ID/Hint : MP3
Duration : 1h 27mn
Bit rate mode : Constant
Bit rate : 128 Kbps
Channel(s) : 2 channels
Sampling rate : 48.0 KHz
Compression mode : Lossy
Stream size : 79.7 MiB (11%)
Alignment : Aligned on interleaves
Interleave, duration : 40 ms (1.00 video frame)
Interleave, preload duration : 504 ms
Writing library : LAME3.99r
Encoding settings : -m s -V 4 -q 0 -lowpass 17 -b 128
Скриншот с названием фильма Скриншоты
Скачать

Скачать торрент!

Как скачивать? · Что такое торрент? · Рейтинг и ограничения

Сайт не распространяет и не хранит электронные версии произведений, а лишь предоставляет доступ к создаваемому пользователями каталогу ссылок на торрент-файлы, которые содержат только списки хеш-сумм

[Профиль] [ЛС]
Показать сообщения:    
Ответить на тему

Текущее время: Сегодня 15:35

Часовой пояс: GMT + 4



Вы не можете начинать темы
Вы не можете отвечать на сообщения
Вы не можете редактировать свои сообщения
Вы не можете удалять свои сообщения
Вы не можете голосовать в опросах
Вы не можете прикреплять файлы к сообщениям
Вы не можете скачивать файлы