Мечты из пластилина (Максим Мехеда) [2012, Мелодрама, драма, криминал, WEB-DLRip]

Ответить на тему
 
Автор Сообщение

user ®

Стаж: 7 лет 7 месяцев

Сообщений: 20008

Пост Пост: #1 от 10-Янв-2015 01:57

[Цитировать]

Мечты из пластилина
Жанр: Мелодрама, драма, криминал
Год выпуска: 2012
Продолжительность: 01:27:04
Режиссёр: Максим Мехеда
В ролях: Игорь Петренко, Екатерина Климова, Алексей Комашко, Поля Полякова, Александр Мохов, Александр Кобзарь, Александра Киреева, Нина Антонова, Григорий Боковенко, Александр Бондаренко
Описание: Куда приводят детские мечты? И стоит ли быть зависимым от иллюзий. 8-ми летняя Оксана влюбляется в сотрудника своего отца, 25-ти летнего красавца Бориса. Он, в шутку обещает подождать, пока девочка вырастет и жениться на ней. Слово Борис не сдерживает, и жениться на своей сверстнице Вике. Оксана по детски драматично переживает это.
Она обещает себе, что во что бы то ни стало, завоюет Бориса. По совету бабушки, девочка лепит свою мечту из пластилина. Спустя почти 10 лет она горько пожалеет о своем желании. Чтобы распознать истинные чувства, девушке придется пережить крах семейного бизнеса, потерю самого близкого и любящего человека. Лишь избавившись от навязчивой идеи детства, Оксана обретет счастье.

Качество видео: WEB-DLRip [Исходник: WEB-DL (1080p)]
Формат видео: AVI
Видео: XviD, 720x400 (16:9), 2205 Кбит/с, 25 кадр/с
Аудио: Русский, Dolby AC3, 48000 Гц, 192 кбит/с, 2 канала (Стерео)

Автор рипа - ivandubskoj
MediaInfo
General
Complete name : Mechty.iz.plastilina.2012.WEB-DLRip.avi
Format : AVI
Format/Info : Audio Video Interleave
File size : 1.46 GiB
Duration : 1h 27mn
Overall bit rate : 2 405 Kbps
Writing application : VirtualDubMod 1.5.10.3 (build 2550/release)
Writing library : VirtualDubMod build 2550/release
Copyright : rip by ivandubskoj
Video
ID : 0
Format : MPEG-4 Visual
Format profile : Advanced Simple@L5
Format settings, BVOP : 1
Format settings, QPel : No
Format settings, GMC : No warppoints
Format settings, Matrix : Default (MPEG)
Codec ID : XVID
Codec ID/Hint : XviD
Duration : 1h 27mn
Bit rate : 2 205 Kbps
Width : 720 pixels
Height : 400 pixels
Display aspect ratio : 16:9
Frame rate : 25.000 fps
Color space : YUV
Chroma subsampling : 4:2:0
Bit depth : 8 bits
Scan type : Progressive
Compression mode : Lossy
Bits/(Pixel*Frame) : 0.306
Stream size : 1.34 GiB (92%)
Writing library : XviD 73
Audio
ID : 1
Format : AC-3
Format/Info : Audio Coding 3
Mode extension : CM (complete main)
Codec ID : 2000
Duration : 1h 27mn
Bit rate mode : Constant
Bit rate : 192 Kbps
Channel(s) : 2 channels
Channel positions : Front: L R
Sampling rate : 48.0 KHz
Bit depth : 16 bits
Compression mode : Lossy
Stream size : 120 MiB (8%)
Alignment : Split accross interleaves
Interleave, duration : 64 ms (1.60 video frames)
Interleave, preload duration : 500 ms
Скриншот с названием фильма Скриншоты
Скачать

Скачать торрент!

Как скачивать? · Что такое торрент? · Рейтинг и ограничения

Сайт не распространяет и не хранит электронные версии произведений, а лишь предоставляет доступ к создаваемому пользователями каталогу ссылок на торрент-файлы, которые содержат только списки хеш-сумм

[Профиль] [ЛС]
Показать сообщения:    
Ответить на тему

Текущее время: Сегодня 02:16

Часовой пояс: GMT + 4



Вы не можете начинать темы
Вы не можете отвечать на сообщения
Вы не можете редактировать свои сообщения
Вы не можете удалять свои сообщения
Вы не можете голосовать в опросах
Вы не можете прикреплять файлы к сообщениям
Вы не можете скачивать файлы