Солана и Людвиг – Рождество в Флоклипа / Solan og Ludvig - Jul i Flåklypa (Расмус А. Сивертсен / Rasmus A. Sivertsen) [2013, мультфильм, семейный, BDRip] DUB + Original (Nor) + Sub

Ответить на тему
 
Автор Сообщение

user ®

Стаж: 12 лет

Сообщений: 15145

Пост Пост: #1 от 09-Янв-2015 22:50

[Цитировать]

Солана и Людвиг – Рождество в Флоклипа
Solan og Ludvig - Jul i Flåklypa
Страна: Норвегия
Жанр: мультфильм, семейный
Продолжительность: 01:16:25
Год выпуска: 2013
Перевод: Профессиональный (дублированный)
Оригинальная дорожка: Норвежский
Русские субтитры: нет
Режиссёр: Расмус А. Сивертсен / Rasmus A. Sivertsen
Роли озвучивали: Йон Брангот, Тронд Бренне, Андерс Бай, Каре Конради, Кари Анн Грёнсунд, Тронд Хёвик
Описание: «Солан и Людвиг - Рождество во Флоклипе» - продолжение истории о полюбившихся всем персонажах Солане, Людвиг и Реодоре Фельгене. На сей раз они готовятся к Рождеству. Единственная проблема заключается в том, что в деревне не выпал снег, а этого Людвигу хочется больше всего. Поэтому изобретатель Реодор изготавливает самую мощную в мире снеговую пушку. Она попадает в руки редактора местной газеты Фриманда Плёсена, мечтающего о снежном буране. Тут-то и начинаются проблемы: бушует метель, Реодор исчез, и Солану с Людвигом приходится самим разбираться во всем этом хаосе.- -Большое спасибо xfiles за Дубляж и -Azureus- за работу с BDRemux'ом, звуком и субтитрами-Качество видео: BDRip (исх. [url=http://***/forum/viewtopic.php?t=4894259]BDRemux 1080p[/url])
Формат видео: AVI
Видео: 720x400 (1.80:1), 24.000 fps, XviD ~2079 kbps, 0.30 bit/pixel
Аудио 1: Русский, 48 kHz, AC3, 2/0 (L,R) ch, ~192 kbps
Аудио 2: Nor, 48 kHz, AC3, 3/2 (L,C,R,l,r) + LFE ch, ~448 kbps
Субтитры: норвежские, английские

Подробные технические данные
GeneralComplete name : Solan og Ludvig - Jul i Flaklypa.rus.nor.Olu6ka.aviFormat : AVIFormat/Info : Audio Video InterleaveFile size : 1.46 GiBDuration : 1h 16mnOverall bit rate : 2 734 KbpsWriting application : VirtualDubModRus 1.5.10.2 (build 2542/release)Writing library : VirtualDubMod build 2542/release
VideoID : 0Format : MPEG-4 VisualFormat profile : Advanced Simple@L5Format settings, BVOP : 1Format settings, QPel : NoFormat settings, GMC : No warppointsFormat settings, Matrix : CustomCodec ID : XVIDCodec ID/Hint : XviDDuration : 1h 16mnBit rate : 2 080 KbpsWidth : 720 pixelsHeight : 400 pixelsDisplay aspect ratio : 16:9Frame rate : 24.000 fpsColor space : YUVChroma subsampling : 4:2:0Bit depth : 8 bitsScan type : ProgressiveCompression mode : LossyBits/(Pixel*Frame) : 0.301Stream size : 1.11 GiB (76%)Writing library : XviD 73
Audio #1ID : 1Format : AC-3Format/Info : Audio Coding 3Mode extension : CM (complete main)Format settings, Endianness : BigCodec ID : 2000Duration : 1h 16mnBit rate mode : ConstantBit rate : 192 KbpsChannel count : 2 channelsChannel positions : Front: L RSampling rate : 48.0 KHzBit depth : 16 bitsCompression mode : LossyStream size : 105 MiB (7%)Alignment : Split accross interleavesInterleave, duration : 42 ms (1.00 video frame)Interleave, preload duration : 500 ms
Audio #2ID : 2Format : AC-3Format/Info : Audio Coding 3Mode extension : CM (complete main)Format settings, Endianness : BigCodec ID : 2000Duration : 1h 16mnBit rate mode : ConstantBit rate : 448 KbpsChannel count : 6 channelsChannel positions : Front: L C R, Side: L R, LFESampling rate : 48.0 KHzBit depth : 16 bitsCompression mode : LossyStream size : 245 MiB (16%)Alignment : Split accross interleavesInterleave, duration : 42 ms (1.00 video frame)Interleave, preload duration : 500 ms
Скриншоты Сравнение

[url=http://***/forum/viewtopic.php?t=4908988]http://***/forum/viewtopic.php?t=4908988[/url]
http://screenshotcomparison.com/comparison/108362
Релиз от группы
Скачать

Скачать торрент! Солана и Людвиг – Рождество в Флоклипа / Solan og Ludvig - Jul i Flåklypa (Расмус А. Сивертсен / Rasmus A. Sivertsen) [2013, мультфильм, семейный, BDRip] DUB + Original (Nor) + Sub

Как скачивать? · Что такое торрент? · Рейтинг и ограничения

Сайт не распространяет и не хранит электронные версии произведений, а лишь предоставляет доступ к создаваемому пользователями каталогу ссылок на торрент-файлы, которые содержат только списки хеш-сумм

[Профиль] [ЛС]
Показать сообщения:    
Ответить на тему

Текущее время: Сегодня 21:54

Часовой пояс: GMT + 4



Вы не можете начинать темы
Вы не можете отвечать на сообщения
Вы не можете редактировать свои сообщения
Вы не можете удалять свои сообщения
Вы не можете голосовать в опросах
Вы не можете прикреплять файлы к сообщениям
Вы не можете скачивать файлы