Джокер: Возмездие (Сергей Арутюнян) [2014, Детектив, SATRip]

Ответить на тему
 
Автор Сообщение

user ®

Стаж: 7 лет 7 месяцев

Сообщений: 20008

Пост Пост: #1 от 09-Янв-2015 22:50

[Цитировать]

Джокер: Возмездие Жанр: Детектив
Год выпуска: 2014
Продолжительность: 01:23:50
Режиссёр: Сергей Арутюнян
В ролях: Дмитрий Клепацкий, Анна Невская, Олег Шкловский, Евгений Березовский, Вячеслав Кулаков, Роман Ладнев, Андрей Зайцев, Юрий Кормушин, Армен Петросян
Описание: Артур Королёв скрывается за границей. Его жена Эльвира беременна, но у нее возникают проблемы со здоровьем, угрожающие ей и еще не родившемуся ребенку. Врачи назначают ей ежедневные уколы. Перерыв в приеме препарата более чем на 48 часов повлечет за собой смертельную угрозу жизни матери и ребенка. Врагам Артура удается выследить его, и они похищают жену в момент ее приезда в Москву. Артур понимает, что у него всего двое суток, чтобы найти Эльвиру. Он выставляет на часах обратный отсчет времени и пускается в погоню за похитителями...-Сэмпл-Качество видео: SATRip
Формат видео: AVI
Видео: 704x448 (1.57:1), 25 fps, XviD MPEG-4 ~1494 kbps avg, 0.19 bit/pixel
Аудио: 48 kHz, MPEG Layer 3, 2 ch, ~128.00 kbps avg
MediaInfo
Format : AVI
Format/Info : Audio Video Interleave
File size : 979 MiB
Duration : 1h 23mn
Overall bit rate : 1 633 Kbps
Writing application : VirtualDubMod 1.5.10.2 (build 2540/release)
Writing library : VirtualDubMod build 2540/release
Video
ID : 0
Format : MPEG-4 Visual
Format profile : Advanced Simple@L5
Format settings, BVOP : 2
Format settings, QPel : No
Format settings, GMC : No warppoints
Format settings, Matrix : Default (MPEG)
Muxing mode : Packed bitstream
Codec ID : XVID
Codec ID/Hint : XviD
Duration : 1h 23mn
Bit rate : 1 495 Kbps
Width : 704 pixels
Height : 448 pixels
Display aspect ratio : 16:10
Frame rate : 25.000 fps
Color space : YUV
Chroma subsampling : 4:2:0
Bit depth : 8 bits
Scan type : Progressive
Compression mode : Lossy
Bits/(Pixel*Frame) : 0.190
Stream size : 896 MiB (92%)
Writing library : XviD 65
Audio
ID : 1
Format : MPEG Audio
Format version : Version 1
Format profile : Layer 3
Mode : Joint stereo
Codec ID : 55
Codec ID/Hint : MP3
Duration : 1h 23mn
Bit rate mode : Constant
Bit rate : 128 Kbps
Channel(s) : 2 channels
Sampling rate : 48.0 KHz
Compression mode : Lossy
Stream size : 76.8 MiB (8%)
Alignment : Aligned on interleaves
Interleave, duration : 40 ms (1.00 video frame)
Interleave, preload duration : 504 ms
Скриншот c названием фильма Скриншоты
Скачать

Скачать торрент!

Как скачивать? · Что такое торрент? · Рейтинг и ограничения

Сайт не распространяет и не хранит электронные версии произведений, а лишь предоставляет доступ к создаваемому пользователями каталогу ссылок на торрент-файлы, которые содержат только списки хеш-сумм

[Профиль] [ЛС]
Показать сообщения:    
Ответить на тему

Текущее время: Сегодня 06:00

Часовой пояс: GMT + 4



Вы не можете начинать темы
Вы не можете отвечать на сообщения
Вы не можете редактировать свои сообщения
Вы не можете удалять свои сообщения
Вы не можете голосовать в опросах
Вы не можете прикреплять файлы к сообщениям
Вы не можете скачивать файлы