Джокер: Возмездие (Сергей Арутюнян) [2014, Боевик, DVB]

Ответить на тему
 
Автор Сообщение

user ®

Стаж: 7 лет 7 месяцев

Сообщений: 20008

Пост Пост: #1 от 09-Янв-2015 22:50

[Цитировать]

Джокер: Возмездие
Год выпуска: 2014
Жанр: Боевик
Производство: Россия, Berg Sound
Продолжительность: 01:23:50
Субтитры: нет
Режиссёр: Сергей Арутюнян
В ролях: Дмитрий Клепацкий, Олег Шкловский, Евгений Березовский, Андрей Зайцев (II), Анна Невская, Юрий Кормушин, Вячеслав Кулаков, Роман Ладнев, Армен Петросян (II)
Описание: Артур Королёв скрывается за границей. Его жена Эльвира беременна, но у нее возникают проблемы со здоровьем, угрожающие ей и еще не родившемуся ребенку. Врачи назначают ей ежедневные уколы. Перерыв в приеме препарата более чем на 48 часов повлечет за собой смертельную угрозу жизни матери и ребенка. Врагам Артура удается выследить его, и они похищают жену в момент ее приезда в Москву. Артур понимает, что у него всего двое суток, чтобы найти Эльвиру. Он выставляет на часах обратный отсчет времени и пускается в погоню за похитителями...

Качество: DVB
Контейнер: MPEG
Видео: MPEG 768х576 @ 704x576 (4:3) 25.00fps ~4834 Kbps (0.477 bit/pixel)
Аудио: MPEG Audio 48000Hz 2 channels 192 Кбит/сек
Сторонней рекламы нет!
MediaInfo
ОбщееПолное имя : H:\Джокер. Возмездие DVB_by_Wowa63_&_Серый1779.mpgФормат : MPEG-PSРазмер файла : 3,00 ГбайтПродолжительность : 1 ч. 23 м.Общий поток : 5128 Кбит/сек
ВидеоИдентификатор : 224 (0xE0)Формат : MPEG VideoВерсия формата : Version 2Профиль формата : Main@MainПараметр BVOP формата : ДаПараметр матрицы формата : По умолчаниюПродолжительность : 1 ч. 23 м.Вид битрейта : ПеременныйБитрейт : 4834 Кбит/секНоминальный битрейт : 7000 Кбит/секШирина : 704 пикс.Высота : 576 пикс.Соотношение сторон : 4:3Частота кадров : 25,000 кадр/секСтандарт вещания : PALЦветовое пространство : YUVПодвыборка цветности : 4:2:0Битовая глубина : 8 битТип развёртки : ПрогрессивнаяПорядок развёртки : Нижнее поле первоеМетод сжатия : С потерямиБит/(Пиксели*Кадры) : 0.477Размер потока : 2,83 Гбайт (94%)
АудиоИдентификатор : 192 (0xC0)Формат : MPEG AudioВерсия формата : Version 1Профиль формата : Layer 2Продолжительность : 1 ч. 23 м.Вид битрейта : ПостоянныйБитрейт : 192 Кбит/секКаналы : 2 каналаЧастота : 48,0 КГцМетод сжатия : С потерямиРазмер потока : 115 Мбайт (4%)
Запись и монтаж:
Оформление:
Раздача группы:
Скриншот c названием фильма Скриншоты
Скачать

Скачать торрент!

Как скачивать? · Что такое торрент? · Рейтинг и ограничения

Сайт не распространяет и не хранит электронные версии произведений, а лишь предоставляет доступ к создаваемому пользователями каталогу ссылок на торрент-файлы, которые содержат только списки хеш-сумм

[Профиль] [ЛС]
Показать сообщения:    
Ответить на тему

Текущее время: Сегодня 00:11

Часовой пояс: GMT + 4



Вы не можете начинать темы
Вы не можете отвечать на сообщения
Вы не можете редактировать свои сообщения
Вы не можете удалять свои сообщения
Вы не можете голосовать в опросах
Вы не можете прикреплять файлы к сообщениям
Вы не можете скачивать файлы