Мотивации ноль / Zero Motivation (Талия Лави / Talya Lavie) [2014, Израиль, драма, комедия, HDTVRip] Sub Rus + Original Heb

Ответить на тему
 
Автор Сообщение

user ®

Стаж: 7 лет 7 месяцев

Сообщений: 20008

Пост Пост: #1 от 09-Янв-2015 18:40

[Цитировать]

Мотивации ноль / Zero Motivation / Эфес бэяхасэй энош
Страна: Израиль
Жанр: драма, комедия
Год выпуска: 2014
Продолжительность: 01:36:45
Перевод: Субтитры
Cубтитры: русские (softsub), иврит (hardsub)
Оригинальная аудиодорожка: иврит
Режиссер: Талия Лави / Talya Lavie
В ролях: Дана Ивги, Нели Тагар, Шани Клейн, Хели Твито, Мейталь Гал, Тамара Клингон, Йонит Тоби
Описание: Зоар и Даффи - лучшие подруги, служащие в отделе личного состава военной базы на юге Израиля. Даффи ненавидит удаленную базу в пустыне и отчаянно пытается перевестись в Тель-Авив. Зоар не волнует местоположение базы; ее главная забота - избавиться от девственности. Она боится остаться без подруги и готова на все, чтобы ее остановить.
Доп. информация: КиноПоиск, IMDb
8 наград и 8 номинаций
Сэмпл: https://www.mediafire.com/?d3u7kk3b4hsq6bt
Качество видео: HDTVRip
Формат видео: AVI
Видео: Xvid 624х352 16:9 25 кадров/сек 1096 Кбит/сек
Аудио: MP3 48 КГц 2 канала 128 Кбит/сек
Формат субтитров: softsub (ASS)
Образец субтитров
Dialogue: 0,0:38:24.33,0:38:27.32,Default,,0,0,0,,Похоже, я - единственная девственница\Nна всём юге.
Dialogue: 0,0:38:27.35,0:38:29.97,Default,,0,0,0,,Единственна девственница в моём кибуце -\Nэто точно.
Dialogue: 0,0:38:29.98,0:38:34.71,Default,,0,0,0,,Все уродины и страшилища уже прошли через это,\Nтолько я ещё нет.
Dialogue: 0,0:38:40.91,0:38:43.30,Default,,0,0,0,,- Хватит пересчитывать нас всё время!\N- Тихо!
Dialogue: 0,0:38:43.34,0:38:45.44,Default,,0,0,0,,Мы не размножаемся!
Dialogue: 0,0:38:49.29,0:38:50.56,Default,,0,0,0,,Наама.
Dialogue: 0,0:38:52.62,0:38:55.50,Default,,0,0,0,,Ясно, что я - единственная девственница на базе.
Dialogue: 0,0:38:55.54,0:39:00.09,Default,,0,0,0,,Верно, все здесь шлюхи.\NНо я не хочу чувствовать, что отличаюсь.
Dialogue: 0,0:39:02.71,0:39:03.93,Default,,0,0,0,,Лиат.
Dialogue: 0,0:39:09.37,0:39:10.68,Default,,0,0,0,,Зоар.
Dialogue: 0,0:39:15.82,0:39:19.92,Default,,0,0,0,,Боже, сделай так, чтобы я была, как все,\Nчтобы я была обычной.
Dialogue: 0,0:39:19.95,0:39:22.14,Default,,0,0,0,,Я не хочу умереть девственницей.
Dialogue: 0,0:39:22.18,0:39:24.56,Default,,0,0,0,,Вернее, я вообще не хочу умирать, и...
Dialogue: 0,0:39:24.60,0:39:26.36,Default,,0,0,0,,конечно же, не девственницей.
Dialogue: 0,0:39:26.40,0:39:29.85,Default,,0,0,0,,Девушки, внимание!
Dialogue: 0,0:39:30.74,0:39:37.05,Default,,0,0,0,,Я знаю, что трудно и жарко, и вы устали,\Nно сейчас важно сосредоточиться.
Dialogue: 0,0:39:37.08,0:39:39.63,Default,,0,0,0,,Шира нездорова, она упадёт в обморок.
Dialogue: 0,0:39:39.67,0:39:41.92,Default,,0,0,0,,Да, Рама, действительно, я сейчас упаду.
Dialogue: 0,0:39:41.95,0:39:44.67,Default,,0,0,0,,Шира пойди, сядь в тень.
Dialogue: 0,0:39:44.92,0:39:47.54,Default,,0,0,0,,Я могу пойти с ней в тень,\Nна случай, если ей потребуется помощь?
Dialogue: 0,0:39:47.57,0:39:52.35,Default,,0,0,0,,Нет! Если ей потребуется помощь, она скажет нам.
MediaInfo
Общее
Полное имя : Zero Motivation.avi
Формат : AVI
Формат/Информация : Audio Video Interleave
Размер файла : 851 Мбайт
Продолжительность : 1 ч. 36 м.
Режим общего битрейта : Переменный
Общий поток : 1230 Кбит/сек
Программа кодирования : VirtualDubMod 1.5.10.2 (build 2540/release)
Библиотека кодирования : VirtualDubMod build 2540/release
Видео
Идентификатор : 0
Формат : MPEG-4 Visual
Профиль формата : Advanced Simple@L5
Параметр BVOP формата : 2
Параметр QPel формата : Нет
Параметр GMC формата : Без точки перехода
Параметр матрицы формата : Default (H.263)
Идентификатор кодека : XVID
Идентификатор кодека/Подсказка : XviD
Продолжительность : 1 ч. 36 м.
Битрейт : 1096 Кбит/сек
Ширина : 624 пикселя
Высота : 352 пикселя
Соотношение сторон : 16:9
Частота кадров : 25,000 кадров/сек
Цветовое пространство : YUV
Субдискретизация насыщенности : 4:2:0
Битовая глубина : 8 бит
Тип развёртки : Прогрессивная
Метод сжатия : С потерями
Бит/(Пиксели*Кадры) : 0.200
Размер потока : 758 Мбайт (89%)
Библиотека кодирования : XviD 63
Аудио
Идентификатор : 1
Формат : MPEG Audio
Версия формата : Version 1
Профиль формата : Layer 3
Режим : Joint stereo
Расширение режима : MS Stereo
Идентификатор кодека : 55
Идентификатор кодека/Подсказка : MP3
Продолжительность : 1 ч. 36 м.
Вид битрейта : Переменный
Битрейт : 121 Кбит/сек
Номинальный битрейт : 128 Кбит/сек
Каналы : 2 канала
Частота : 48,0 КГц
Метод сжатия : С потерями
Размер потока : 83,7 Мбайт (10%)
Выравнивание : Соединение по промежуткам
Продолжительность промежутка : 24 мс. (0,60 видеокадр)
Время предзагрузки промежутка : 501 мс.
Библиотека кодирования : LAME3.98r
Настройки программы : -m j -V 4 -q 2 -lowpass 17 --abr 128
Скриншот c названием фильма Скриншоты
Скачать

Скачать торрент!

Как скачивать? · Что такое торрент? · Рейтинг и ограничения

Сайт не распространяет и не хранит электронные версии произведений, а лишь предоставляет доступ к создаваемому пользователями каталогу ссылок на торрент-файлы, которые содержат только списки хеш-сумм

[Профиль] [ЛС]
Показать сообщения:    
Ответить на тему

Текущее время: Сегодня 23:14

Часовой пояс: GMT + 4



Вы не можете начинать темы
Вы не можете отвечать на сообщения
Вы не можете редактировать свои сообщения
Вы не можете удалять свои сообщения
Вы не можете голосовать в опросах
Вы не можете прикреплять файлы к сообщениям
Вы не можете скачивать файлы