Охотник в городе / Сити Хантер / Городской охотник / City Hunter / Sing si lip yan (Цзин Вон / Jing Wong) [1993 г., Гонконг, Япония, Боевик, Комедия, HDRip] AVO (Карповский) + VO (Неизвеcтный)

Ответить на тему
 
Автор Сообщение

user ®

Стаж: 13 лет

Сообщений: 15071

Пост Пост: #1 от 09-Янв-2015 14:00

[Цитировать]

Охотник в городе / Сити Хантер / Городской охотник / City Hunter / Sing si lip yan
Год выпуска: 1993
Страна: Гонконг, Япония
Жанр: Боевик, Комедия
Продолжительность: 1:39:04
Перевод 1: Авторский (одноголосый закадровый), [url=http://***/forum/profile.php?mode=viewprofile&u=15450674]Антон Карповский[/url]
Перевод 2: Одноголосый закадровый, [url=http://***/forum/viewtopic.php?t=733495]Неизвеcтный[/url] (VHS)
Cубтитры: нет
Режиссер: Цзин Вон / Jing Wong
В ролях: Джеки Чан /Jackie Chan/, Джои Ван /Joey Wong/, Чингми Яу /Chingmy Yau/, Ричард Нортон /Richard Norton/, Майкл Вонг /Michael Wong/, Гэри Дэниелс /Gary Daniels/
Описание: Герой Джеки Чана — плейбой, полусыщик, полунаемник и целиком бабник. К нему обращается газетный магнат Имамура, у которого пропала дочь. Джеки пробирается на роскошный круизный лайнер, на котором разношерстная банда преступников держит свою жертву. Доступным лишь одному ему способом, Джеки удается изрядно подпортить путешествие этим подонкам и освободить прекраснейшую из женщин.
Исходник видео: BDRip 720p [Юрай]
Качество видео: HDRip
Формат видео: AVI
Видео кодек: XviD
Аудио кодек: AC3
Видео: 720x384, 24,000 fps, 1464 kbps
Аудио: 48000Hz, DD 5.1, 384 kbps (Карповский)
Аудио: 48000Hz, stereo, 192 kbps (Неизвеcтный)
Скачать: SAMPLE 30.70MB
P.S.: Всех кто располагает переводами Антона Карповского попрошу в [url=http://***/forum/viewtopic.php?t=2490001]эту[/url] тему.
MediaInfo
Формат : AVI
Формат/Информация : Audio Video Interleave
Размер файла : 1,46 Гбайт
Продолжительность : 1 ч. 39 м.
Общий поток : 2117 Кбит/сек
Программа кодирования : VirtualDubMod 1.5.4.1 (build 2178/release)
Библиотека кодирования : VirtualDubMod build 2178/release
Видео
Идентификатор : 0
Формат : MPEG-4 Visual
Профиль формата : Advanced Simple@L5
Параметр BVOP формата : 1
Параметр QPel формата : Нет
Параметр GMC формата : Без точки перехода
Параметр матрицы формата : Default (MPEG)
Идентификатор кодека : XVID
Идентификатор кодека/Подсказка : XviD
Продолжительность : 1 ч. 39 м.
Битрейт : 1464 Кбит/сек
Ширина : 720 пикселей
Высота : 384 пикселя
Соотношение сторон : 1,85:1
Частота кадров : 24,000 кадра/сек
Цветовое пространство : YUV
Субдискретизация насыщенности : 4:2:0
Битовая глубина : 8 бит
Тип развёртки : Прогрессивная
Метод сжатия : С потерями
Бит/(Пиксели*Кадры) : 0.221
Размер потока : 1,01 Гбайт (69%)
Библиотека кодирования : XviD 73
Аудио #1
Идентификатор : 1
Формат : AC-3
Формат/Информация : Audio Coding 3
Расширение режима : CM (complete main)
Параметр Endianness формата : Big
Идентификатор кодека : 2000
Продолжительность : 1 ч. 38 м.
Вид битрейта : Постоянный
Битрейт : 448 Кбит/сек
Каналы : 6 каналов
Расположение каналов : Front: L C R, Side: L R, LFE
Частота : 48,0 КГц
Битовая глубина : 16 бит
Метод сжатия : С потерями
Размер потока : 317 Мбайт (21%)
Выравнивание : Разделение по промежуткам
Продолжительность промежутка : 42 мс. (1,00 видеокадр)
Время предзагрузки промежутка : 500 мс.
Аудио #2
Идентификатор : 2
Формат : AC-3
Формат/Информация : Audio Coding 3
Расширение режима : CM (complete main)
Параметр Endianness формата : Big
Идентификатор кодека : 2000
Продолжительность : 1 ч. 39 м.
Вид битрейта : Постоянный
Битрейт : 192 Кбит/сек
Каналы : 2 канала
Расположение каналов : Front: L R
Частота : 48,0 КГц
Битовая глубина : 16 бит
Метод сжатия : С потерями
Размер потока : 136 Мбайт (9%)
Выравнивание : Разделение по промежуткам
Продолжительность промежутка : 42 мс. (1,00 видеокадр)
Время предзагрузки промежутка : 500 мс.
Скриншоты
Скачать

Скачать торрент! Охотник в городе / Сити Хантер / Городской охотник / City Hunter / Sing si lip yan (Цзин Вон / Jing Wong) [1993 г., Гонконг, Япония, Боевик, Комедия, HDRip] AVO (Карповский) + VO (Неизвеcтный)

Как скачивать? · Что такое торрент? · Рейтинг и ограничения

Сайт не распространяет и не хранит электронные версии произведений, а лишь предоставляет доступ к создаваемому пользователями каталогу ссылок на торрент-файлы, которые содержат только списки хеш-сумм

[Профиль] [ЛС]
Показать сообщения:    
Ответить на тему

Текущее время: Сегодня 17:42

Часовой пояс: GMT + 4



Вы не можете начинать темы
Вы не можете отвечать на сообщения
Вы не можете редактировать свои сообщения
Вы не можете удалять свои сообщения
Вы не можете голосовать в опросах
Вы не можете прикреплять файлы к сообщениям
Вы не можете скачивать файлы