Бродяга Кэнсин: Великий киотский пожар / Rurouni Kenshin: Kyoto Inferno (Кэиси Отомо / Keishi Ohtomo) [2014, Япония, драма, история, HDRip] VO (aleksei80)

Ответить на тему
 
Автор Сообщение

user ®

Стаж: 13 лет

Сообщений: 15071

Пост Пост: #1 от 09-Янв-2015 07:45

[Цитировать]

Бродяга Кэнсин: Великий киотский пожар / Rurouni Kenshin: Kyoto Inferno
Страна: Япония
Жанр: драма, история
Год выпуска: 2014
Продолжительность: 02:18:41
Перевод: Одноголосый закадровый aleksei80
Cубтитры: нет
Оригинальная аудиодорожка: нет
Режиссер: Кэиси Отомо / Keishi Ohtomo
В ролях: Тацуя Фудзивара
Такэру Сато
Эми Такэй
Мунэтака Аоки
Каито Ояги
Ю Аой
Описание: Продолжение истории о похождениях Кэнсина Химуры, некогда легендарного убийцы, вступившего на путь искупления. На этот раз Кэнсин вступает в противостояние с самим Шишио Макото, злодеем, вознамерившимся свергнуть правительство Мэйдзи и подчинить себе всю Японию. Судьба страны висит на волоске, и скиталец-самурай Химура вновь берет в руки меч, к которому он поклялся никогда не прикасаться снова.
Сэмпл: http://multi-up.com/1025249
Качество видео: HDRip
Формат видео: AVI
Видео: XVID, 720x304, 2.35:1, 24.000 fps, 1 959 Kbps
Аудио: MP3, 44.1 KHz, 192 Kbps, 2 channels
MediaInfo
General
Complete name : C:\Users\котэ\Downloads\раздача на рутрекере\Бродяга Кеншин - Великий киотский пожар.avi
Format : AVI
Format/Info : Audio Video Interleave
File size : 2.09 GiB
Duration : 2h 18mn
Overall bit rate : 2 160 Kbps
Writing application : MEncoder Sherpya-SVN-r27811-4.2.5
Writing library : VirtualDub build 32842/release
Video
ID : 0
Format : MPEG-4 Visual
Format profile : Simple@L3
Format settings, BVOP : No
Format settings, QPel : No
Format settings, GMC : No warppoints
Format settings, Matrix : Default (H.263)
Codec ID : XVID
Codec ID/Hint : XviD
Duration : 2h 18mn
Bit rate : 1 959 Kbps
Width : 720 pixels
Height : 304 pixels
Display aspect ratio : 2.35:1
Frame rate : 24.000 fps
Color space : YUV
Chroma subsampling : 4:2:0
Bit depth : 8 bits
Scan type : Progressive
Compression mode : Lossy
Bits/(Pixel*Frame) : 0.373
Stream size : 1.90 GiB (91%)
Writing library : XviD 1.1.2 (UTC 2006-11-01)
Audio
ID : 1
Format : MPEG Audio
Format version : Version 1
Format profile : Layer 3
Mode : Joint stereo
Mode extension : MS Stereo
Codec ID : 55
Codec ID/Hint : MP3
Duration : 2h 18mn
Bit rate mode : Constant
Bit rate : 192 Kbps
Channel(s) : 2 channels
Sampling rate : 44.1 KHz
Compression mode : Lossy
Stream size : 190 MiB (9%)
Alignment : Split accross interleaves
Interleave, duration : 42 ms (1.00 video frame)
Interleave, preload duration : 500 ms
Скриншот c названием фильма Скриншоты
Скачать

Скачать торрент! Бродяга Кэнсин: Великий киотский пожар / Rurouni Kenshin: Kyoto Inferno (Кэиси Отомо / Keishi Ohtomo) [2014, Япония, драма, история, HDRip] VO (aleksei80)

Как скачивать? · Что такое торрент? · Рейтинг и ограничения

Сайт не распространяет и не хранит электронные версии произведений, а лишь предоставляет доступ к создаваемому пользователями каталогу ссылок на торрент-файлы, которые содержат только списки хеш-сумм

[Профиль] [ЛС]
Показать сообщения:    
Ответить на тему

Текущее время: Сегодня 20:22

Часовой пояс: GMT + 4



Вы не можете начинать темы
Вы не можете отвечать на сообщения
Вы не можете редактировать свои сообщения
Вы не можете удалять свои сообщения
Вы не можете голосовать в опросах
Вы не можете прикреплять файлы к сообщениям
Вы не можете скачивать файлы