Тень повелителя / Тень сёгуна / Shôgun Iemitsu no ranshin - Gekitotsu (Ясуо Фурухата / Ясуо Фурухата) [1989, Япония, боевик, драма, приключения, история, DVDRip] VO

Ответить на тему
 
Автор Сообщение

user ®

Стаж: 13 лет

Сообщений: 15071

Пост Пост: #1 от 09-Янв-2015 07:45

[Цитировать]

Тень повелителя / Тень сёгуна / Shôgun Iemitsu no ranshin - Gekitotsu- -Страна: Япония
Жанр: боевик, драма, приключения, история
Год выпуска: 1989
Продолжительность: 01:51:33-Перевод: Одноголосый закадровый-Cубтитры: нет
Оригинальная аудиодорожка: нет
Режиссер: Ясуо Фурухата / Ясуо Фурухата
В ролях: Кен Огата, Норихито Арай, Тосихиро Ашари, Сонни Тиба, Сэйдзо Фукумото, Цзяньцан Ху, Миюки Кано, Масаки Кёмото, Хироки Мацуката, Такеши Майя...
Описание: Иэмицу, третий сёгун эпохи Токугава, ненавидит своего старшего сына Такэтиё. Однажды он приказывает ему отправиться в Эдо в сопровождении верного Хотта Масамори и семи самураев. Хотта подозревает неладное, но не может не подчиниться приказу. Ночью на путешественников нападает армия сёгуна…
Релиз от -
Качество видео: DVDRip
Формат видео: AVI
Видео: MPEG-4 Visual at 800 Кбит/сек; 640 x 360 (1.778) at 23.976 fps
Аудио: MPEG Audio at 128 Кбит/сек; 2 канала, 48,0 КГц
Автор -
MediaInfo
Общее
Полное имя : D:\Фильмы\Азиатские\Тень сёгуна\The Shadow Lord.1989.DVDrip.XviD.745MB. rip by [Assassin's Creed].avi
Формат : AVI
Формат/Информация : Audio Video Interleave
Размер файла : 748 Мбайт
Продолжительность : 1 ч. 51 м.
Общий поток : 938 Кбит/сек
Программа кодирования : VirtualDubMod 1.5.10.3 | www.virtualdub-fr.org || (build 2550/release)
Библиотека кодирования : VirtualDubMod build 2550/release
Видео
Идентификатор : 0
Формат : MPEG-4 Visual
Профиль формата : Advanced Simple@L5
Параметр BVOP формата : 1
Параметр QPel формата : Нет
Параметр GMC формата : Без точки перехода
Параметр матрицы формата : Default (MPEG)
Идентификатор кодека : XVID
Идентификатор кодека/Подсказка : XviD
Продолжительность : 1 ч. 51 м.
Битрейт : 800 Кбит/сек
Ширина : 640 пикселей
Высота : 360 пикселей
Соотношение сторон : 16:9
Частота кадров : 23,976 кадра/сек
Цветовое пространство : YUV
Субдискретизация насыщенности : 4:2:0
Битовая глубина : 8 бит
Тип развёртки : Прогрессивная
Метод сжатия : С потерями
Бит/(Пиксели*Кадры) : 0.145
Размер потока : 638 Мбайт (85%)
Библиотека кодирования : XviD 1.2.1 (UTC 2008-12-04)
Аудио
Идентификатор : 1
Формат : MPEG Audio
Версия формата : Version 1
Профиль формата : Layer 3
Идентификатор кодека : 55
Идентификатор кодека/Подсказка : MP3
Продолжительность : 1 ч. 51 м.
Вид битрейта : Постоянный
Битрейт : 128 Кбит/сек
Каналы : 2 канала
Частота : 48,0 КГц
Метод сжатия : С потерями
Размер потока : 102 Мбайт (14%)
Выравнивание : Соединение по промежуткам
Продолжительность промежутка : 42 мс. (1,00 видеокадр)
Время предзагрузки промежутка : 504 мс.
Библиотека кодирования : LAME3.99r
Настройки программы : -m s -V 4 -q 2 -lowpass 17 -b 128
Скриншот c названием фильма Скриншоты
Скачать

Скачать торрент! Тень повелителя / Тень сёгуна / Shôgun Iemitsu no ranshin - Gekitotsu (Ясуо Фурухата / Ясуо Фурухата) [1989, Япония, боевик, драма, приключения, история, DVDRip] VO

Как скачивать? · Что такое торрент? · Рейтинг и ограничения

Сайт не распространяет и не хранит электронные версии произведений, а лишь предоставляет доступ к создаваемому пользователями каталогу ссылок на торрент-файлы, которые содержат только списки хеш-сумм

[Профиль] [ЛС]
Показать сообщения:    
Ответить на тему

Текущее время: Сегодня 18:20

Часовой пояс: GMT + 4



Вы не можете начинать темы
Вы не можете отвечать на сообщения
Вы не можете редактировать свои сообщения
Вы не можете удалять свои сообщения
Вы не можете голосовать в опросах
Вы не можете прикреплять файлы к сообщениям
Вы не можете скачивать файлы