Призыв / Paigham (С.С. Васан / S.S. Vasan) [1959, Индия, Мелодрама, WEBRip] VO (Юлия Семыкина)

Ответить на тему
 
Автор Сообщение

user ®

Стаж: 12 лет

Сообщений: 15092

Пост Пост: #1 от 09-Янв-2015 07:45

[Цитировать]

Призыв / Paigham--
Страна: Индия
Жанр: Мелодрама
Год выпуска: 1959
Продолжительность: 02:48:52
Перевод: Одноголосый закадровый
Cубтитры: нет
Оригинальная аудиодорожка: нет--Режиссер: С.С. Васан / S.S. Vasan--В ролях: Дилип Кумар, Радж Кумар, Виджаянтимала, Сароджа Деви, Джонни Уокер, Пандхарибаи, Мотилал, Мину Мумтаз, С.Н. Бенарджи, Пратима Деви, Курупанджу, Пушпмала, Радха, Шиварадж, Ситалакшми--Описание: Закончивший образование Ратан возвращается домой к матери, старшему брату и его семье. В маленьком городке почти все зависят от текстильной фабрики на которой работает и старший брат Ратана, Рам Лал. Ратан тоже поступает механиком на эту же фабрику. Очень скоро он замечает несправедливое отношение хозяина к своим рабочим. Не в силах терпеть такое положение вещей Ратан организовывает профсоюз рабочих фабрики. С этого момента хозяин становится его врагом и пытается всеми средствами избавится от строптивого механика.--Доп. информация:
В декабре 2013 года, песня из этого фильма, "Insaan ka insaan se ho bhai chara" ("Да будет братство людей"),
"Yehi Paigham Humara"(" Это наше послание"), оказалась в центре внимания, после того, как она была исполнена
Арвиндом Кеджривалом во время его первой речи в качестве главного министра Дели с людьми на площади Рамлила,
которые присоединились к нему и пели эту песню--Благодарность:
larisa_k, за перевод субтитров и за предоставленные материалы
Юлия Семыкина, за озвучку фильма-Рип и сведение звука: --Релиз-группа:
Сэмпл: http://multi-up.com/1025278
Качество видео: WEBRip
Формат видео: AVI
Видео: XviD, 720x448, 25.00 fps, 1053 kbps
Аудио: AC3, 48 kHz, 2.0 (stereo), 192 kbps (русский)-
-
MediaInfo
General
Complete name : Prizyv.1959.WEBRip.XviD.pca1962.avi
Format : AVI
Format/Info : Audio Video Interleave
File size : 1.46 GiB
Duration : 2h 47mn
Overall bit rate : 1 254 Kbps
Movie name : Paigham.1959
Director : pca1962
Genre : Melodrama
Writing application : VirtualDubMod 1.5.10.2 (build 2540/release)
Original source form/Name : Movie
Comment : mixing audio rus-pca1962
Video
ID : 0
Format : MPEG-4 Visual
Format profile : Advanced Simple@L5
Format settings, BVOP : 1
Format settings, QPel : No
Format settings, GMC : No warppoints
Format settings, Matrix : Default (H.263)
Codec ID : XVID
Codec ID/Hint : XviD
Duration : 2h 47mn
Bit rate : 1053 Kbps
Width : 720 pixels
Height : 448 pixels
Display aspect ratio : 16:10
Frame rate : 25.000 fps
Color space : YUV
Chroma subsampling : 4:2:0
Bit depth : 8 bits
Scan type : Progressive
Compression mode : Lossy
Bits/(Pixel*Frame) : 0.131
Stream size : 1.23 GiB (84%)
Writing library : XviD 73
Audio
ID : 1
Format : AC-3
Format/Info : Audio Coding 3
Mode extension : CM (complete main)
Format settings, Endianness : Big
Codec ID : 2000
Duration : 2h 47mn
Bit rate mode : Constant
Bit rate : 192 Kbps
Channel count : 2 channels
Channel positions : Front: L R
Sampling rate : 48.0 KHz
Bit depth : 16 bits
Compression mode : Lossy
Stream size : 229 MiB (15%)
Alignment : Split accross interleaves
Interleave, duration : 40 ms (1.00 video frame)
Interleave, preload duration : 500 ms

-
-Скриншот c названием фильма Скриншоты
Скачать

Скачать торрент! Призыв / Paigham (С.С. Васан / S.S. Vasan) [1959, Индия, Мелодрама, WEBRip] VO (Юлия Семыкина)

Как скачивать? · Что такое торрент? · Рейтинг и ограничения

Сайт не распространяет и не хранит электронные версии произведений, а лишь предоставляет доступ к создаваемому пользователями каталогу ссылок на торрент-файлы, которые содержат только списки хеш-сумм

[Профиль] [ЛС]
Показать сообщения:    
Ответить на тему

Текущее время: Сегодня 12:43

Часовой пояс: GMT + 4



Вы не можете начинать темы
Вы не можете отвечать на сообщения
Вы не можете редактировать свои сообщения
Вы не можете удалять свои сообщения
Вы не можете голосовать в опросах
Вы не можете прикреплять файлы к сообщениям
Вы не можете скачивать файлы