Человек с сумкой / Мотель / The Bag Man (Дэвид Гровик / David Grovic) [2014 г., США, Багамы, Триллер, Криминал, HDRip] AVO (Карповский)

Ответить на тему
 
Автор Сообщение

user ®

Стаж: 7 лет 7 месяцев

Сообщений: 20008

Пост Пост: #1 от 09-Янв-2015 07:45

[Цитировать]

Человек с сумкой / Мотель / The Bag Man
Год выпуска: 2014
Страна: США, Багамы
Жанр: Триллер, Криминал
Продолжительность: 1:48:39
Перевод: Авторский (одноголосый закадровый), [url=http://***/forum/profile.php?mode=viewprofile&u=15450674]Антон Карповский[/url]
Cубтитры: нет
Режиссер: Дэвид Гровик / David Grovic
В ролях: Джон Кьюсак /John Cusack/, Ребекка Да Коста /Rebecca Da Costa/, Роберт Де Ниро /Robert De Niro/, Криспин Гловер /Crispin Glover/, Доминик Пёрселл /Dominic Purcell/, Стикки Фингаз /Sticky Fingaz/, Мартин Клебба /Martin Klebba/
Описание: Наемный убийца Джек Стаффорд получает несложное задание: приехать в заштатный мотель в 300 милях от Питтсбурга, получить сумку с таинственным содержимым и оставаться в номере, пока за грузом не приедут. Условие одно: ни при каких обстоятельствах не заглядывать внутрь сумки. Но поручение оказывается простым лишь на первый взгляд. Вскоре киллер понимает, что за доверенным ему предметом охотятся коррумпированные агенты ФБР, продажные полицейские, провинциальные гангстеры и кровожадный карлик-цыган из Сербии. И каждый хочет всадить в Джека пулю. Число жертв растет на глазах, и дожить до рассвета смогут далеко не все постояльцы мотеля.
Качество видео: [url=http://***/forum/viewtopic.php?t=4898689]HDRip[/url]
Формат видео: AVI
Видео кодек: XviD
Аудио кодек: AC3
Видео: 720x304, 23,976 fps, 1460 kbps
Аудио: 48000Hz, DD 5.1, 448 kbps
Скачать: SAMPLE 30.40MB
Доп. информация: За перевод, данного фильма у Антона Карповского, выражается благодарность пользователям форума hdtracker и e180: zeleniydzhan, Wolf_Larsen, Xerman13, idalgo, Gennady 2013, Savely, Daniel Rock, vik19662007, Gross1978, KpucTo161, carnivale.
P.S.: Всех кто располагает переводами Антона Карповского попрошу в [url=http://***/forum/viewtopic.php?t=2490001]эту[/url] тему.
MediaInfo
Формат : AVI
Формат/Информация : Audio Video Interleave
Размер файла : 1,46 Гбайт
Продолжительность : 1 ч. 48 м.
Общий поток : 1918 Кбит/сек
Программа кодирования : VirtualDubMod 1.5.4.1 (build 2178/release)
Библиотека кодирования : VirtualDubMod build 2178/release
Видео
Идентификатор : 0
Формат : MPEG-4 Visual
Профиль формата : Advanced Simple@L5
Параметр BVOP формата : 2
Параметр QPel формата : Нет
Параметр GMC формата : Без точки перехода
Параметр матрицы формата : Default (MPEG)
Идентификатор кодека : XVID
Идентификатор кодека/Подсказка : XviD
Продолжительность : 1 ч. 48 м.
Битрейт : 1460 Кбит/сек
Ширина : 720 пикселей
Высота : 304 пикселя
Соотношение сторон : 2,35:1
Частота кадров : 23,976 кадра/сек
Цветовое пространство : YUV
Субдискретизация насыщенности : 4:2:0
Битовая глубина : 8 бит
Тип развёртки : Прогрессивная
Метод сжатия : С потерями
Бит/(Пиксели*Кадры) : 0.278
Размер потока : 1,11 Гбайт (76%)
Библиотека кодирования : XviD 1.2.1 (UTC 2008-12-04)
Аудио
Идентификатор : 1
Формат : AC-3
Формат/Информация : Audio Coding 3
Расширение режима : CM (complete main)
Параметр Endianness формата : Big
Идентификатор кодека : 2000
Продолжительность : 1 ч. 48 м.
Вид битрейта : Постоянный
Битрейт : 448 Кбит/сек
Каналы : 6 каналов
Расположение каналов : Front: L C R, Side: L R, LFE
Частота : 48,0 КГц
Битовая глубина : 16 бит
Метод сжатия : С потерями
Размер потока : 348 Мбайт (23%)
Выравнивание : Разделение по промежуткам
Продолжительность промежутка : 42 мс. (1,00 видеокадр)
Время предзагрузки промежутка : 500 мс.
Скриншоты
Скачать

Скачать торрент!

Как скачивать? · Что такое торрент? · Рейтинг и ограничения

Сайт не распространяет и не хранит электронные версии произведений, а лишь предоставляет доступ к создаваемому пользователями каталогу ссылок на торрент-файлы, которые содержат только списки хеш-сумм

[Профиль] [ЛС]
Показать сообщения:    
Ответить на тему

Текущее время: Сегодня 00:12

Часовой пояс: GMT + 4



Вы не можете начинать темы
Вы не можете отвечать на сообщения
Вы не можете редактировать свои сообщения
Вы не можете удалять свои сообщения
Вы не можете голосовать в опросах
Вы не можете прикреплять файлы к сообщениям
Вы не можете скачивать файлы