Охотник на людей / Manhunter (Майкл Манн / Michael Mann) [1986, США, триллер, криминал, детектив, BDRip 720p] [Театральная версия / Theatrical Cut] MVO (CP Digital) + DVO (Екатеринбург Арт) + AVO (Гаврилов) + Original (Eng) + Sub (Rus, Eng)

Ответить на тему
 
Автор Сообщение

user ®

Стаж: 7 лет 7 месяцев

Сообщений: 20008

Пост Пост: #1 от 09-Янв-2015 00:25

[Цитировать]

Охотник на людей / Manhunter
Театральная версия / Theatrical Cut
Год выпуска: 1986
Страна: США
Жанр: триллер, криминал, детектив
Продолжительность: 02:00:06
Перевод 1: Профессиональный (многоголосый закадровый) (CP Digital)
Перевод 2: Профессиональный (двухголосный закадровый) (Екатеринбург Арт)
Перевод 3: Авторский (одноголосный закадровый) (Андрей Гаврилов)
Cубтитры: русские, английские
Оригинальная аудиодорожка: английский
Оглавление: 16 англоязычных глав
Режиссер: Майкл Манн /Michael Mann/
В ролях: Уильям Питерсен /William Petersen/, Брайан Кокс /Brian Cox/, Том Нунен /Tom Noonan/, Деннис Фарина /Dennis Farina/, Ким Грайст /Kim Greist/, Джоан Аллен /Joan Allen/, Стивен Лэнг /Stephen Lang/, Дэвид Симан /David Seaman/, Бенджамин Хендриксон /Benjamin Hendrickson/, Майкл Тэлботт /Michael Talbott/
Описание:
«Охотник на людей» — это завораживающее преследование маньяка-убийцы, получившего прозвище «Зубная фея». Идущий по следам этого опаснейшего преступника агент ФБР вынужден использовать единственный способ поиска: сотрудничая с доктором Ганнибалом Лектером, заключенным в тюремную психбольницу, он должен «войти» в кошмарный внутренний мир убийцы…
Дополнительная информация:
IMDB User Rating→: 7.2/10 (43,315 votes)
Рейтинг фильма КиноПоиск.Ru→: 6.626 (2 824 голоса)
  • CP Digital выпустили на DVD так называемую Hybrid-версию, в которой отсутствует ряд эпизодов из театральной версии. Эти эпизоды переведены форсированными субтитрами;
  • Озвучка Екатеринбург Арт оцифрована с VHS. За оцифровку спасибо Fikaloid, за работу над дорожкой — team_6strun;
  • Only P-frames were used to help the compression with the grainy source! Dirty lines fixed with overlay method. A few zones were applied.
    Качество: BDRip (by StotheG@RightSiZE)
    Контейнер: MKV
    Видеопоток: 1280x544p, 23.976 fps, x264 ~8483 kbps
    Аудиопоток №1 (RUS): DD 5.1, 48 kHz, 448 kbps | профессиональный многоголосый закадровый (CP Digital)
    Аудиопоток №2 (RUS): DD 2.0, 48 kHz, 192 kbps | профессиональный двухголосный закадровый (Екатеринбург Арт)
    Аудиопоток №3 (RUS): DD 5.1, 48 kHz, 640 kbps | авторский одноголосный закадровый (Андрей Гаврилов)
    Аудиопоток №4 (ENG): DD 5.1, 48 kHz, 640 kbps
    Субтитры №1 (RUS): SRT/UTF8 | форсированные
    Субтитры №2 (RUS): SRT/UTF8 | полные, для слабослышащих
    Субтитры №3 (ENG): SRT/UTF8 | SDH
    Сэмпл: Яндекс.Диск→, multi-up→, nekaka→, sendspace→
    MediaInfo
General
Unique ID                   : 202512943838186329121011817816616891628 (0x985A93031F63DBF18D6F4EFB3D5C74EC)
Complete name               : Manhunter.1986.Theatrical.Cut.720p.BDRip.x264.DD.SRT-RightSiZE.mkv
Format                      : Matroska
Format version              : Version 4 / Version 2
File size                   : 8.90 GiB
Duration                    : 2h 0mn
Overall bit rate            : 10.6 Mbps
Movie name                  : Manhunter (1986) Theatrical Cut 720p BDRip by RightSiZE
Encoded date                : UTC 2015-01-02 17:22:30
Writing application         : mkvmerge v7.4.0 ('Circles') 32bit built on Dec 12 2014 12:10:09
Writing library             : libebml v1.3.0 + libmatroska v1.4.1
_STATISTICS_WRITING_APP     : mkvmerge v7.4.0 ('Circles') 32bit built on Dec 12 2014 12:10:09
_STATISTICS_WRITING_DATE_UT : 2015-01-02 17:22:30
_STATISTICS_TAGS            : BPS DURATION NUMBER_OF_FRAMES NUMBER_OF_BYTES
DURATION                    : 01:16:02.552000000
NUMBER_OF_FRAMES            : 26
NUMBER_OF_BYTES             : 2350
Video
ID                          : 1
Format                      : AVC
Format/Info                 : Advanced Video Codec
Format profile              : High@L4.1
Format settings, CABAC      : Yes
Format settings, ReFrames   : 12 frames
Codec ID                    : V_MPEG4/ISO/AVC
Duration                    : 2h 0mn
Bit rate                    : 8 483 Kbps
Width                       : 1 280 pixels
Height                      : 544 pixels
Display aspect ratio        : 2.35:1
Frame rate mode             : Constant
Frame rate                  : 23.976 fps
Color space                 : YUV
Chroma subsampling          : 4:2:0
Bit depth                   : 8 bits
Scan type                   : Progressive
Bits/(Pixel*Frame)          : 0.508
Stream size                 : 7.12 GiB (80%)
Title                       : 1280x544, 23.976 fps, x264 ~8507 kbps
Writing library             : x264 core 142 r2491 24e4fed
Encoding settings           : cabac=1 / ref=12 / deblock=1:-3:-3 / analyse=0x3:0x113 / me=umh / subme=10 / psy=1 / psy_rd=1.00:0.00 / mixed_ref=1 / me_range=48 / chroma_me=1 / trellis=2 / 8x8dct=1 / cqm=1 / deadzone=21,11 / fast_pskip=0 / chroma_qp_offset=-1 / threads=6 / lookahead_threads=1 / sliced_threads=0 / nr=0 / decimate=1 / interlaced=0 / bluray_compat=0 / constrained_intra=0 / bframes=0 / weightp=2 / keyint=230 / keyint_min=23 / scenecut=40 / intra_refresh=0 / rc_lookahead=40 / rc=crf / mbtree=0 / crf=17.5 / qcomp=0.60 / qpmin=2 / qpmax=69 / qpstep=4 / vbv_maxrate=62500 / vbv_bufsize=78125 / crf_max=0.0 / nal_hrd=none / filler=0 / ip_ratio=1.00 / aq=2:0.80 / zones=10053,12472,crf=15.2/152197,155680,crf=15.5/157610,158765,crf=15.8/158976,159180,crf=15/159477,163026,crf=15.2
Language                    : English
Default                     : Yes
Forced                      : No
_STATISTICS_WRITING_APP     : mkvmerge v7.4.0 ('Circles') 32bit built on Dec 12 2014 12:10:09
_STATISTICS_WRITING_DATE_UT : 2015-01-02 17:22:30
_STATISTICS_TAGS            : BPS DURATION NUMBER_OF_FRAMES NUMBER_OF_BYTES
DURATION                    : 02:00:05.907000000
NUMBER_OF_FRAMES            : 172769
NUMBER_OF_BYTES             : 7828373720
Audio #1
ID                          : 2
Format                      : AC-3
Format/Info                 : Audio Coding 3
Mode extension              : CM (complete main)
Format settings, Endianness : Big
Codec ID                    : A_AC3
Duration                    : 2h 0mn
Bit rate mode               : Constant
Bit rate                    : 448 Kbps
Channel(s)                  : 6 channels
Channel positions           : Front: L C R, Side: L R, LFE
Sampling rate               : 48.0 KHz
Bit depth                   : 16 bits
Compression mode            : Lossy
Stream size                 : 385 MiB (4%)
Title                       : RUS MVO CP Digital DD 5.1, 48 kHz, 448 kbps
Language                    : Russian
Default                     : Yes
Forced                      : No
Audio #2
ID                          : 3
Format                      : AC-3
Format/Info                 : Audio Coding 3
Mode extension              : CM (complete main)
Format settings, Endianness : Big
Codec ID                    : A_AC3
Duration                    : 2h 0mn
Bit rate mode               : Constant
Bit rate                    : 192 Kbps
Channel(s)                  : 2 channels
Channel positions           : Front: L R
Sampling rate               : 48.0 KHz
Bit depth                   : 16 bits
Compression mode            : Lossy
Stream size                 : 165 MiB (2%)
Title                       : RUS DVO Екатеринбург Арт DD 2.0, 48 kHz, 192 kbps
Language                    : Russian
Default                     : No
Forced                      : No
Audio #3
ID                          : 4
Format                      : AC-3
Format/Info                 : Audio Coding 3
Mode extension              : CM (complete main)
Format settings, Endianness : Big
Codec ID                    : A_AC3
Duration                    : 2h 0mn
Bit rate mode               : Constant
Bit rate                    : 640 Kbps
Channel(s)                  : 6 channels
Channel positions           : Front: L C R, Side: L R, LFE
Sampling rate               : 48.0 KHz
Bit depth                   : 16 bits
Compression mode            : Lossy
Stream size                 : 550 MiB (6%)
Title                       : RUS AVO А.Гаврилов DD 5.1, 48 kHz, 640 kbps
Language                    : Russian
Default                     : No
Forced                      : No
Audio #4
ID                          : 5
Format                      : AC-3
Format/Info                 : Audio Coding 3
Mode extension              : CM (complete main)
Format settings, Endianness : Big
Codec ID                    : A_AC3
Duration                    : 2h 0mn
Bit rate mode               : Constant
Bit rate                    : 640 Kbps
Channel(s)                  : 6 channels
Channel positions           : Front: L C R, Side: L R, LFE
Sampling rate               : 48.0 KHz
Bit depth                   : 16 bits
Compression mode            : Lossy
Stream size                 : 550 MiB (6%)
Title                       : ENG DD 5.1, 48 kHz, 640 kbps
Language                    : English
Default                     : No
Forced                      : No
Text #1
ID                          : 6
Format                      : UTF-8
Codec ID                    : S_TEXT/UTF8
Codec ID/Info               : UTF-8 Plain Text
Title                       : RUS Forced SRT
Language                    : Russian
Default                     : Yes
Forced                      : No
Text #2
ID                          : 7
Format                      : UTF-8
Codec ID                    : S_TEXT/UTF8
Codec ID/Info               : UTF-8 Plain Text
Title                       : RUS SDH SRT
Language                    : Russian
Default                     : No
Forced                      : No
Text #3
ID                          : 8
Format                      : UTF-8
Codec ID                    : S_TEXT/UTF8
Codec ID/Info               : UTF-8 Plain Text
Title                       : ENG SDH SRT
Language                    : English
Default                     : No
Forced                      : No
Menu
00:00:00.000                : en:Main Title/Needed
00:08:40.228                : en:Crime Analysis
00:18:12.800                : en:Tooth Fairy at Large
00:23:11.848                : en:Dr. Lecktor
00:32:35.620                : en:Evidence Builds
00:37:53.729                : en:Killer Communication
00:49:03.649                : en:Bait
00:54:33.561                : en:The Red Dragon
01:00:26.998                : en:New Target
01:11:53.600                : en:Developing
01:18:23.115                : en:Connection
01:25:46.432                : en:The Power of God
01:32:44.725                : en:Will Sees
01:40:31.567                : en:Closing In
01:48:13.195                : en:Savior
01:55:19.203                : en:End Titles
Скриншоты Source vs. RightSiZE
Скачать

Скачать торрент!

Как скачивать? · Что такое торрент? · Рейтинг и ограничения

Сайт не распространяет и не хранит электронные версии произведений, а лишь предоставляет доступ к создаваемому пользователями каталогу ссылок на торрент-файлы, которые содержат только списки хеш-сумм

[Профиль] [ЛС]
Показать сообщения:    
Ответить на тему

Текущее время: Сегодня 08:26

Часовой пояс: GMT + 4



Вы не можете начинать темы
Вы не можете отвечать на сообщения
Вы не можете редактировать свои сообщения
Вы не можете удалять свои сообщения
Вы не можете голосовать в опросах
Вы не можете прикреплять файлы к сообщениям
Вы не можете скачивать файлы