Секс по телефону или "Одинокая волна" / Sexphone and the lonely wave (Чалермпол Буннаг / Chalermpol Bunnag) [2003, Таиланд, Комедия, мелодрама, DVDRip-AVC] VO (Валерий Феодосов)

Ответить на тему
 
Автор Сообщение

user ®

Стаж: 13 лет

Сообщений: 15071

Пост Пост: #1 от 08-Янв-2015 21:15

[Цитировать]

Секс по телефону или "Одинокая волна" / Sexphone and the lonely wave
Страна: Таиланд
Жанр: Комедия, мелодрама
Год выпуска: 2003
Продолжительность: 1:53:46
Перевод: Одноголосый закадровый (Валерий Феодосов)
Cубтитры: нет
Режиссер: Чалермпол Буннаг / Chalermpol Bunnag
В ролях: Кэви Танчжарарак, Пунлапа Тэйлор, Анант Буннарк, Чесавус Ватчарахун, Сомчай Самипак
Описание: Деу - воспитанный мужчина, знающий меру во всем, чего не скажешь о Джей.
Она уверена в себе, немного неряшлива, и относится к тому типу девушек, которые громко поют и танцуют до упада на каждом празднике. И это одна из причин, почему Деу ее ненавидит. Изо дня в день их соседские стычки и случайные встречи перерастают в серьезные ссоры...
И вот однажды, парень Джей разбивает ей сердце... Девушка впадает в тяжелую депрессию и лучший друг дает ее номер телефона DJ-ю, ведущего шоу "Одинокая волна".
Как же так получилось, что именно в ту ночь, когда на шоу должны позвонить Джей, DJ был в отпуске и заменял его ассистент - Деу?
И вот неопытный Деу уже выслушивает пошлые намеки от Джей,
которая уверена, что разговаривает с каким-то сумасшедшим, совершенно забыв, что их секс-разговор транслируется в прямом эфире...
Доп. информация: Русские субтитры - Фансаб-группа «АЛЬЯНС»
Сэмпл: https://www.sendspace.com/file/f65up3
Качество видео: DVDRip-AVC
Формат видео: MKV
Видео: MPEG-4; 704x384 24 fps
Аудио: AC-3 at 192 Кбит/сек; 2 канала, 48,0 КГц
MediaInfo
Complete name : H:\Раздачи\Секс по телефону.mkv
Format : Matroska
File size : 1.04 GiB
Duration : 1h 53mn
Overall bit rate : 1 303 Kbps
Encoded date : UTC 2015-01-07 09:31:13
Writing application : mkvmerge v5.7.0 ('The Whirlwind') built on Jul 8 2012 20:08:51
Writing library : libebml v1.2.3 + libmatroska v1.3.0
Video #1
ID : 1
Format : AVC
Format/Info : Advanced Video Codec
Format profile : High@L3.0
Format settings, CABAC : Yes
Format settings, ReFrames : 5 frames
Format settings, GOP : M=2, N=24
Muxing mode : Header stripping
Codec ID : V_MPEG4/ISO/AVC
Duration : 1h 53mn
Bit rate : 1 110 Kbps
Width : 704 pixels
Height : 384 pixels
Display aspect ratio : 16:9
Frame rate : 24.000 fps
Color space : YUV
Chroma subsampling : 4:2:0
Bit depth : 8 bits
Scan type : Progressive
Bits/(Pixel*Frame) : 0.171
Stream size : 883 MiB (83%)
Title : Sexphone and The Lonely Wave (2003) DVDRip [QTGMC]
Writing library : x264 core 129 r2230 1cffe9f
Encoding settings : cabac=1 / ref=5 / deblock=1:0:0 / analyse=0x3:0x133 / me=umh / subme=9 / psy=1 / psy_rd=1.00:0.00 / mixed_ref=1 / me_range=16 / chroma_me=1 / trellis=1 / 8x8dct=1 / cqm=0 / deadzone=21,11 / fast_pskip=1 / chroma_qp_offset=-2 / threads=9 / lookahead_threads=1 / sliced_threads=0 / nr=0 / decimate=1 / interlaced=0 / bluray_compat=0 / constrained_intra=0 / bframes=5 / b_pyramid=2 / b_adapt=2 / b_bias=0 / direct=3 / weightb=1 / open_gop=0 / weightp=2 / keyint=240 / keyint_min=24 / scenecut=40 / intra_refresh=0 / rc_lookahead=40 / rc=2pass / mbtree=1 / bitrate=1110 / ratetol=1.0 / qcomp=0.60 / qpmin=0 / qpmax=69 / qpstep=4 / cplxblur=20.0 / qblur=0.5 / ip_ratio=1.40 / aq=1:1.00
Color primaries : BT.470-6 System B, BT.470-6 System G, BT.601-6 625, BT.1358 625, BT.1700 625 PAL, BT.1700 625 SECAM
Transfer characteristics : BT.470-6 System B, BT.470-6 System G
Matrix coefficients : BT.470-6 System B, BT.470-6 System G, BT.601-6 625, BT.1358 625, BT.1700 625 PAL, BT.1700 625 SECAM, IEC 61966-2-4 601
Audio #2
ID : 2
Format : MPEG Audio
Format version : Version 1
Format profile : Layer 3
Mode : Joint stereo
Muxing mode : Header stripping
Codec ID : A_MPEG/L3
Codec ID/Hint : MP3
Duration : 1h 53mn
Bit rate mode : Constant
Bit rate : 192 Kbps
Channel(s) : 2 channels
Sampling rate : 48.0 KHz
Compression mode : Lossy
Stream size : 156 MiB (15%)
Скриншоты
Скачать

Скачать торрент! Секс по телефону или "Одинокая волна" / Sexphone and the lonely wave (Чалермпол Буннаг / Chalermpol Bunnag) [2003, Таиланд, Комедия, мелодрама, DVDRip-AVC] VO (Валерий Феодосов)

Как скачивать? · Что такое торрент? · Рейтинг и ограничения

Сайт не распространяет и не хранит электронные версии произведений, а лишь предоставляет доступ к создаваемому пользователями каталогу ссылок на торрент-файлы, которые содержат только списки хеш-сумм

[Профиль] [ЛС]
Показать сообщения:    
Ответить на тему

Текущее время: Сегодня 21:41

Часовой пояс: GMT + 4



Вы не можете начинать темы
Вы не можете отвечать на сообщения
Вы не можете редактировать свои сообщения
Вы не можете удалять свои сообщения
Вы не можете голосовать в опросах
Вы не можете прикреплять файлы к сообщениям
Вы не можете скачивать файлы