Люси / Lucy (Люк Бессон / Luc Besson) [2014, Франция, боевик, фантастика, BDRemux 1080p] Dub + AVO (Гаврилов) + Sub Rus, Ukr, Eng + Original Eng

Ответить на тему
 
Автор Сообщение

user ®

Стаж: 7 лет 7 месяцев

Сообщений: 20008

Пост Пост: #1 от 08-Янв-2015 18:05

[Цитировать]

Люси / Lucy Страна: Франция
Студия: Canal+ [fr], Ciné, EuropaCorp, TF1 Films Production
Жанр: боевик, фантастика
Год выпуска: 2014
Продолжительность: 01:29:20
Перевод 1: Профессиональный (дублированный) Blu-ray CEE
Перевод 2: Авторский (одноголосый закадровый) Гаврилов
Cубтитры: русские (forced, full), украинские (forced, full), английские (forced, full, SDH, SDH Colored)
Оригинальная аудиодорожка: английский
Режиссер: Люк Бессон / Luc Besson
В ролях: Скарлетт Йоханссон, Морган Фримен, Аналей Типтон, Чхве Мин Сик, Амр Вакид, Мэйсон Ли, Йохан Филип Асбек, Фредерик Чау, Клер Трэн, Жан Оливер Шредер
Описание: Еще вчера она была просто сексапильной блондинкой, а сегодня — самое опасное и смертоносное создание на планете со сверхъестественными способностями и интеллектом. То, что совсем недавно лучшие умы мира считали фантастической теорией, для нее стало реальностью. И теперь из добычи она превратится в охотницу.

Тип релиза: BDRemux 1080p
Контейнер: MKV
Видео: AVC, 1920x1080, 28031 kbps, 23.976 fps
Аудио 1: Russian: 48 kHz, DTS, 3/2 (L,C,R,l,r) + LFE ch, ~768.00 kbps avg |Blu-ray CEE|
Аудио 2: Russian: DTS-HD Master Audio Russian / 5.1 / 48 kHz / 4176 kbps / 24-bit (DTS Core: 5.1 / 48 kHz / 1509 kbps / 24-bit) |Гаврилов|
Аудио 3: English: DTS-HD Master Audio English / 5.1 / 48 kHz / 4284 kbps / 24-bit (DTS Core: 5.1 / 48 kHz / 1509 kbps / 24-bit) |Original|
Чаптеры: есть

Доп.информация
За перевод Гаврилова большое спасибо пользователям форумов hdtracker.org:
rydanes; dwser; dunhill200; Denis1980; Brown15; GaryH; Chistobaev; Диммон; KerkP; Видео; Role; Отон; Denis2251; hulahup; Gangster; ultrajeka; fly32; Dr. Destructo; apollion; saenwert; Shumway
и Е-180: foxlight; пуля; zeleniy; kondratzx; chontvari; xerman13; Vladimir; MyxAmoP; luka69; karantin66; Nadoelo; uchitel538; madoff; furria62; audiolubitel; фёдор александрович; vit; Letyoha3; pestel; Iceman; carnivale; User
MediaInfo
General
Unique ID : 210084352696619799061098317659339735962 (0x9E0CC64A41A446DD8085D56FAB4BC39A)
Complete name : D:\рипы\Lucy.2014.1080p.BluRay-Remux.AVC.DTS-HD MA 5.1-Talian-.mkv
Format : Matroska
Format version : Version 2
File size : 22.7 GiB
Duration : 1h 29mn
Overall bit rate mode : Variable
Overall bit rate : 36.3 Mbps
Movie name : Lucy -Talian-
Encoded date : UTC 2015-01-02 08:27:41
Writing application : mkvmerge v5.7.0 ('The Whirlwind') built on Jul 8 2012 20:08:51
Writing library : libebml v1.2.3 + libmatroska v1.3.0
Video
ID : 1
Format : AVC
Format/Info : Advanced Video Codec
Format profile : High@L4.1
Format settings, CABAC : Yes
Format settings, ReFrames : 4 frames
Codec ID : V_MPEG4/ISO/AVC
Duration : 1h 29mn
Bit rate mode : Variable
Bit rate : 31.1 Mbps
Maximum bit rate : 32.5 Mbps
Width : 1 920 pixels
Height : 1 080 pixels
Display aspect ratio : 16:9
Frame rate : 23.976 fps
Color space : YUV
Chroma subsampling : 4:2:0
Bit depth : 8 bits
Scan type : Progressive
Bits/(Pixel*Frame) : 0.625
Stream size : 19.4 GiB (86%)
Title : BDRemux
Language : English
Default : Yes
Forced : No
Audio #1
ID : 2
Format : DTS
Format/Info : Digital Theater Systems
Codec ID : A_DTS
Duration : 1h 29mn
Bit rate mode : Constant
Bit rate : 755 Kbps
Channel(s) : 6 channels
Channel positions : Front: L C R, Side: L R, LFE
Sampling rate : 48.0 KHz
Bit depth : 24 bits
Compression mode : Lossy
Stream size : 482 MiB (2%)
Title : DUB- Blu-ray CEE
Language : Russian
Default : Yes
Forced : No
Audio #2
ID : 3
Format : DTS
Format/Info : Digital Theater Systems
Format profile : MA / Core
Codec ID : A_DTS
Duration : 1h 29mn
Bit rate mode : Variable
Bit rate : 2 155 Kbps / 1 510 Kbps
Channel(s) : 6 channels
Channel positions : Front: L C R, Side: L R, LFE
Sampling rate : 48.0 KHz
Bit depth : 24 bits
Compression mode : Lossless / Lossy
Title : AVO-Гаврилов
Language : Russian
Default : No
Forced : No
Audio #3
ID : 4
Format : DTS
Format/Info : Digital Theater Systems
Format profile : MA / Core
Codec ID : A_DTS
Duration : 1h 29mn
Bit rate mode : Variable
Bit rate : 1 576 Kbps / 1 510 Kbps
Channel(s) : 6 channels
Channel positions : Front: L C R, Side: L R, LFE
Sampling rate : 48.0 KHz
Bit depth : 24 bits
Compression mode : Lossless / Lossy
Title : Original
Language : English
Default : No
Forced : No
Text #1
ID : 5
Format : UTF-8
Codec ID : S_TEXT/UTF8
Codec ID/Info : UTF-8 Plain Text
Title : Sub-forced
Language : Russian
Default : Yes
Forced : No
Text #2
ID : 6
Format : UTF-8
Codec ID : S_TEXT/UTF8
Codec ID/Info : UTF-8 Plain Text
Title : Sub-full
Language : Russian
Default : No
Forced : No
Text #3
ID : 7
Format : UTF-8
Codec ID : S_TEXT/UTF8
Codec ID/Info : UTF-8 Plain Text
Title : Sub-forced
Language : Ukrainian
Default : No
Forced : No
Text #4
ID : 8
Format : UTF-8
Codec ID : S_TEXT/UTF8
Codec ID/Info : UTF-8 Plain Text
Title : Sub-full
Language : Ukrainian
Default : No
Forced : No
Text #5
ID : 9
Format : UTF-8
Codec ID : S_TEXT/UTF8
Codec ID/Info : UTF-8 Plain Text
Title : Sub-forced
Language : English
Default : No
Forced : No
Text #6
ID : 10
Format : UTF-8
Codec ID : S_TEXT/UTF8
Codec ID/Info : UTF-8 Plain Text
Title : Sub-full
Language : English
Default : No
Forced : No
Text #7
ID : 11
Format : UTF-8
Codec ID : S_TEXT/UTF8
Codec ID/Info : UTF-8 Plain Text
Title : Sub-SDH
Language : English
Default : No
Forced : No
Text #8
ID : 12
Format : UTF-8
Codec ID : S_TEXT/UTF8
Codec ID/Info : UTF-8 Plain Text
Title : Sub-SDH Colored
Language : English
Default : No
Forced : No
Menu
00:00:00.000 : Chapter 01
00:05:26.367 : Chapter 02
00:08:38.267 : Chapter 03
00:15:45.569 : Chapter 04
00:21:36.837 : Chapter 05
00:26:05.397 : Chapter 06
00:30:27.534 : Chapter 07
00:37:36.254 : Chapter 08
00:41:43.459 : Chapter 09
00:47:32.558 : Chapter 10
00:50:10.716 : Chapter 11
00:55:32.495 : Chapter 12
00:59:36.072 : Chapter 13
01:02:08.099 : Chapter 14
01:04:51.345 : Chapter 15
01:07:14.030 : Chapter 16
01:09:55.816 : Chapter 17
01:12:26.133 : Chapter 18
01:18:50.475 : Chapter 19
01:22:31.988 : Chapter 20
Скриншоты
Скачать

Скачать торрент!

Как скачивать? · Что такое торрент? · Рейтинг и ограничения

Сайт не распространяет и не хранит электронные версии произведений, а лишь предоставляет доступ к создаваемому пользователями каталогу ссылок на торрент-файлы, которые содержат только списки хеш-сумм

[Профиль] [ЛС]
Показать сообщения:    
Ответить на тему

Текущее время: Сегодня 23:21

Часовой пояс: GMT + 4



Вы не можете начинать темы
Вы не можете отвечать на сообщения
Вы не можете редактировать свои сообщения
Вы не можете удалять свои сообщения
Вы не можете голосовать в опросах
Вы не можете прикреплять файлы к сообщениям
Вы не можете скачивать файлы