Земля Хо! / Land Ho! (Аарон Кац / Aaron Katz, Марта Стефенс / Martha Stephens) [2014, США, Комедия, приключения, HDRip-AVC] MVO (iTunes)

Ответить на тему
 
Автор Сообщение

user ®

Стаж: 7 лет 7 месяцев

Сообщений: 20008

Пост Пост: #1 от 08-Янв-2015 01:10

[Цитировать]

Земля Хо!
Страна: США
Жанр: Комедия, приключения
Год выпуска: 2014
Продолжительность: 01:35:08
Перевод: Профессиональный (многоголосый закадровый) iTunes
Cубтитры: нет
Оригинальная аудиодорожка: нет
Режиссер: Аарон Кац / Aaron Katz, Марта Стефенс / Martha Stephens
В ролях: Эрл Линн Нельсон, Пол Инхорн, Даниэль Гильвасон, Трудюр Кристьяунсдоуттир, Кэрри Круз, Элизабет МакКи, Арнар Гудмундсон, Магнус Кр. Гудмундсон, Бьярни Триггвасон
Описание: Близкие друзья Митч и Колин были женаты на двух сестрах. Они разошлись, когда Митч и его жена развелись, а жена Колина умерла.
Митч, отставной хирург, который не может смириться с жизнью на пенсии, вытаскивает Колина на отдых в Исландии. Этот билет — шанс воспрять духом для двух людей, которые получили свою долю разочарований, но в которых все еще не умер дух приключений.-Сэмпл / Кинопоиск / ImDB .-Качество видео: HDRip-AVC
Формат видео: MKV
Видео: Н.264, 928x528 (16:9), 23,976 fps, 1674 kbps
Аудио: 48 kHz, AC3 Dolby Digital, 6 ch, ~384.00 kbps
MediaInfo
Format : Matroska
Format version : Version 4 / Version 2
File size : 1.37 GiB
Duration : 1h 35mn
Overall bit rate : 2 056 Kbps
Movie name : Земля Хо! / Land Ho! (2014) HDRip-AVC rip by Rulya74
Encoded date : UTC 2015-01-07 14:50:32
Writing application : mkvmerge v7.4.0 ('Circles') 64bit built on Dec 12 2014 12:19:56
Writing library : libebml v1.3.0 + libmatroska v1.4.1
DURATION : 01:35:07.712000000
NUMBER_OF_FRAMES : 178366
NUMBER_OF_BYTES : 273970176
_STATISTICS_WRITING_APP : mkvmerge v7.4.0 ('Circles') 64bit built on Dec 12 2014 12:19:56
_STATISTICS_WRITING_DATE_UTC : 2015-01-07 14:50:32
_STATISTICS_TAGS : BPS DURATION NUMBER_OF_FRAMES NUMBER_OF_BYTES
Video
ID : 1
Format : AVC
Format/Info : Advanced Video Codec
Format profile : High@L4.1
Format settings, CABAC : Yes
Format settings, ReFrames : 11 frames
Codec ID : V_MPEG4/ISO/AVC
Duration : 1h 35mn
Bit rate : 1 674 Kbps
Width : 928 pixels
Height : 528 pixels
Display aspect ratio : 16:9
Frame rate mode : Constant
Frame rate : 23.976 fps
Color space : YUV
Chroma subsampling : 4:2:0
Bit depth : 8 bits
Scan type : Progressive
Bits/(Pixel*Frame) : 0.142
Stream size : 1.08 GiB (79%)
Writing library : x264 core 142 r2431 ac76440
Encoding settings : cabac=1 / ref=11 / deblock=1:-1:-1 / analyse=0x3:0x113 / me=umh / subme=11 / psy=1 / psy_rd=1.00:0.00 / mixed_ref=1 / me_range=48 / chroma_me=1 / trellis=2 / 8x8dct=1 / cqm=0 / deadzone=21,11 / fast_pskip=0 / chroma_qp_offset=-2 / threads=6 / lookahead_threads=1 / sliced_threads=0 / nr=0 / decimate=1 / interlaced=0 / bluray_compat=0 / constrained_intra=0 / bframes=5 / b_pyramid=2 / b_adapt=2 / b_bias=0 / direct=3 / weightb=1 / open_gop=0 / weightp=2 / keyint=240 / keyint_min=23 / scenecut=40 / intra_refresh=0 / rc_lookahead=40 / rc=2pass / mbtree=1 / bitrate=1674 / ratetol=1.0 / qcomp=0.60 / qpmin=0 / qpmax=69 / qpstep=4 / cplxblur=20.0 / qblur=0.5 / vbv_maxrate=62500 / vbv_bufsize=78125 / nal_hrd=none / filler=0 / ip_ratio=1.40 / aq=1:1.00
Default : Yes
Forced : No
Audio
ID : 2
Format : AC-3
Format/Info : Audio Coding 3
Mode extension : CM (complete main)
Format settings, Endianness : Big
Codec ID : A_AC3
Duration : 1h 35mn
Bit rate mode : Constant
Bit rate : 384 Kbps
Channel(s) : 6 channels
Channel positions : Front: L C R, Side: L R, LFE
Sampling rate : 48.0 KHz
Bit depth : 16 bits
Compression mode : Lossy
Stream size : 261 MiB (19%)
Title : Профессиональный (многоголосый закадровый)
Language : Russian
Default : Yes
Forced : No
Скриншот c названием фильма Скриншоты
Скачать

Скачать торрент!

Как скачивать? · Что такое торрент? · Рейтинг и ограничения

Сайт не распространяет и не хранит электронные версии произведений, а лишь предоставляет доступ к создаваемому пользователями каталогу ссылок на торрент-файлы, которые содержат только списки хеш-сумм

[Профиль] [ЛС]
Показать сообщения:    
Ответить на тему

Текущее время: Сегодня 17:27

Часовой пояс: GMT + 4



Вы не можете начинать темы
Вы не можете отвечать на сообщения
Вы не можете редактировать свои сообщения
Вы не можете удалять свои сообщения
Вы не можете голосовать в опросах
Вы не можете прикреплять файлы к сообщениям
Вы не можете скачивать файлы