Брат (Алексей Балабанов) [1997, боевик, драма, криминал, DVDRip-AVC]

Ответить на тему
 
Автор Сообщение

user ®

Стаж: 7 лет 7 месяцев

Сообщений: 20008

Пост Пост: #1 от 07-Янв-2015 22:00

[Цитировать]

Брат-
Год выпуска: 1997
Жанр: боевик, драма, криминал
Продолжительность: 01:35:27
Навигация по главам: есть-Режиссёр: Алексей Балабанов
В ролях: Сергей Бодров мл., Виктор Сухоруков, Светлана Письмиченко, Мария Жукова, Юрий Кузнецов, Сергей Мурзин, Ирина Ракшина, Анатолий Журавлев, Андрей Федорцов, Андрей Краско
Описание: Демобилизированный из армии Данила Багров возвращается в родной город. Скучная, однообразная жизнь провинции не может устроить крепкого русского парня, и он решает поехать в Питер, испытать себя. Тем более, что там, по слухам, уже давно процветает его старший брат. Но новая русская жизнь северной столицы оказывается слишком неожиданной, а родной брат Данилы зарабатывает на жизнь заказными убийствами. Даниле предстоит многое узнать... и со многими разобраться...-IMDb: 8.0/10
КиноПоиск: 8.22/10
-Сэмпл-Качество видео: DVDRip-AVC | за [url=http://***/forum/viewtopic.php?t=4643390]исходник[/url] спасибо сергей плетюхов
Формат: MKV
Видео кодек: AVC
Аудио кодек: AC3
Видео: x264, 720x576@1024x576 (16:9), 25.000fps, 2216kbps, 0.209 bit/pixel
Аудио: Russian AC3, 48kHz, 6ch, 384 kbps-

Доп. информация
Устранен рассинхрон аудиодорожки с видео, который был на исходнике
MediaInfo
Complete name : C:\...\Brat.1997.x264.DVDRip.ac3.mkv
Format : Matroska
Format version : Version 4 / Version 2
File size : 1.73 GiB
Duration : 1h 35mn
Overall bit rate : 2 602 Kbps
Encoded date : UTC 2015-01-04 11:22:07
Writing application : mkvmerge v7.2.0 ('On Every Street') 32bit built on Sep 13 2014 15:42:11
Writing library : libebml v1.3.0 + libmatroska v1.4.1
Attachements : Cover.jpg
DURATION : 01:35:23.008000000
NUMBER_OF_FRAMES : 178844
NUMBER_OF_BYTES : 274704384
_STATISTICS_WRITING_APP : mkvmerge v7.2.0 ('On Every Street') 32bit built on Sep 13 2014 15:42:11
_STATISTICS_WRITING_DATE_UTC : 2015-01-04 11:22:07
_STATISTICS_TAGS : BPS DURATION NUMBER_OF_FRAMES NUMBER_OF_BYTES
Video
ID : 1
Format : AVC
Format/Info : Advanced Video Codec
Format profile : High@L3.1
Format settings, CABAC : Yes
Format settings, ReFrames : 10 frames
Codec ID : V_MPEG4/ISO/AVC
Duration : 1h 35mn
Bit rate : 2 166 Kbps
Width : 720 pixels
Height : 576 pixels
Display aspect ratio : 16:9
Frame rate mode : Constant
Frame rate : 25.000 fps
Standard : PAL
Color space : YUV
Chroma subsampling : 4:2:0
Bit depth : 8 bits
Scan type : Progressive
Bits/(Pixel*Frame) : 0.209
Stream size : 1.44 GiB (83%)
Writing library : x264 core 142 r2491kMod 24e4fed
Encoding settings : cabac=1 / ref=10 / deblock=1:-1:-1 / analyse=0x3:0x113 / me=umh / subme=11 / psy=1 / fade_compensate=0.90 / psy_rd=1.10:0.05 / mixed_ref=1 / me_range=32 / chroma_me=1 / trellis=2 / 8x8dct=1 / cqm=0 / deadzone=21,11 / fast_pskip=1 / chroma_qp_offset=-3 / threads=3 / lookahead_threads=1 / sliced_threads=0 / nr=0 / decimate=1 / interlaced=0 / bluray_compat=0 / constrained_intra=0 / fgo=0 / bframes=12 / b_pyramid=2 / b_adapt=2 / b_bias=0 / direct=1 / weightb=1 / open_gop=0 / weightp=2 / keyint=250 / keyint_min=25 / scenecut=40 / intra_refresh=0 / rc_lookahead=100 / rc=crf / mbtree=1 / crf=16.0000 / qcomp=0.70 / qpmin=0 / qpmax=69 / qpstep=4 / vbv_maxrate=17500 / vbv_bufsize=17500 / crf_max=0.0 / nal_hrd=none / filler=0 / ip_ratio=1.10 / aq=1:1.00
Language : English
Default : Yes
Forced : No
Color primaries : BT.601 PAL
Transfer characteristics : BT.470 System B, BT.470 System G
Matrix coefficients : BT.601
DURATION : 01:35:27.240000000
NUMBER_OF_FRAMES : 143181
NUMBER_OF_BYTES : 1586500233
_STATISTICS_WRITING_APP : mkvmerge v7.2.0 ('On Every Street') 32bit built on Sep 13 2014 15:42:11
_STATISTICS_WRITING_DATE_UTC : 2015-01-04 11:22:07
_STATISTICS_TAGS : BPS DURATION NUMBER_OF_FRAMES NUMBER_OF_BYTES
Audio
ID : 2
Format : AC-3
Format/Info : Audio Coding 3
Mode extension : CM (complete main)
Format settings, Endianness : Big
Codec ID : A_AC3
Duration : 1h 35mn
Bit rate mode : Constant
Bit rate : 384 Kbps
Channel(s) : 6 channels
Channel positions : Front: L C R, Side: L R, LFE
Sampling rate : 48.0 KHz
Bit depth : 16 bits
Compression mode : Lossy
Stream size : 262 MiB (15%)
Language : Russian
Default : Yes
Forced : No
Menu
00:00:00.000 : :Chapter 01
00:06:20.480 : :Chapter 02
00:12:01.440 : :Chapter 03
00:17:36.320 : :Chapter 04
00:22:24.000 : :Chapter 05
00:28:31.800 : :Chapter 06
00:36:24.120 : :Chapter 07
00:44:58.960 : :Chapter 08
00:47:46.240 : :Chapter 09
00:56:21.920 : :Chapter 10
01:03:08.360 : :Chapter 11
01:08:49.000 : :Chapter 12
01:11:56.040 : :Chapter 13
01:15:37.000 : :Chapter 14
01:26:49.520 : :Chapter 15
01:32:01.680 : :Chapter 16
Log x264
x264 [info]: frame I:783 Avg QP:13.32 size: 57744
x264 [info]: frame P:37215 Avg QP:14.87 size: 24407
x264 [info]: frame B:105183 Avg QP:18.65 size: 6018
x264 [info]: consecutive B-frames: 3.3% 5.8% 18.6% 21.5% 18.0% 25.9% 4.2% 0.7% 0.4% 0.2% 0.2% 0.2% 1.0%
x264 [info]: mb I I16..4: 16.4% 67.5% 16.1%
x264 [info]: mb P I16..4: 3.9% 12.8% 1.1% P16..4: 27.1% 25.9% 14.1% 0.0% 0.0% skip:15.0%
x264 [info]: mb B I16..4: 0.5% 1.7% 0.1% B16..8: 33.7% 15.9% 2.7% direct:5.1% skip:40.3% L0:34.9% L1:40.4% BI:24.6%
x264 [info]: 8x8 transform intra:72.3% inter:57.6%
x264 [info]: coded y,uvDC,uvAC intra: 69.9% 87.1% 65.2% inter: 24.3% 21.5% 4.6%
x264 [info]: i16 v,h,dc,p: 86% 6% 5% 3%
x264 [info]: i8 v,h,dc,ddl,ddr,vr,hd,vl,hu: 18% 9% 23% 6% 7% 9% 7% 10% 10%
x264 [info]: i4 v,h,dc,ddl,ddr,vr,hd,vl,hu: 19% 7% 20% 7% 10% 12% 8% 9% 8%
x264 [info]: i8c dc,h,v,p: 38% 24% 25% 12%
x264 [info]: Weighted P-Frames: Y:4.5% UV:2.3%
x264 [info]: ref P L0: 54.1% 12.6% 15.4% 4.1% 3.8% 2.6% 2.6% 1.4% 1.4% 1.3% 0.6% 0.0%
x264 [info]: ref B L0: 89.1% 6.8% 1.7% 0.8% 0.5% 0.4% 0.3% 0.2% 0.1%
x264 [info]: ref B L1: 96.4% 3.6%
x264 [info]: kb/s:2216.08
Скриншоты СравнениеSource Encode
Скачать

Скачать торрент!

Как скачивать? · Что такое торрент? · Рейтинг и ограничения

Сайт не распространяет и не хранит электронные версии произведений, а лишь предоставляет доступ к создаваемому пользователями каталогу ссылок на торрент-файлы, которые содержат только списки хеш-сумм

[Профиль] [ЛС]
Показать сообщения:    
Ответить на тему

Текущее время: Сегодня 05:54

Часовой пояс: GMT + 4



Вы не можете начинать темы
Вы не можете отвечать на сообщения
Вы не можете редактировать свои сообщения
Вы не можете удалять свои сообщения
Вы не можете голосовать в опросах
Вы не можете прикреплять файлы к сообщениям
Вы не можете скачивать файлы