Винни-Пух и все, все, все... (Винни-Пух; Винни-Пух идёт в гости; Винни-Пух и день забот) (Фёдор Хитрук, Геннадий Сокольский) [1969, 1971, 1972, мультфильм, экранизация, DVDRip] БЕЗ африканско-пожарской реставрации

Ответить на тему
 
Автор Сообщение

user ®

Стаж: 7 лет 7 месяцев

Сообщений: 20008

Пост Пост: #1 от 07-Янв-2015 13:35

[Цитировать]

Винни-ПухВинни-Пух идёт в гостиВинни-Пух и день заботСтрана: СССР
Жанр: Мультфильм, экранизация
Продолжительность: 00:40:02 (00:10:33 + 00:09:58 + 00:19:31)
Год выпуска: 1969, 1971, 1972
Выпущено: Студия «Союзмультфильм»
Режиссёры: Фёдор Хитрук, Геннадий Сокольский
Роли озвучивали: Владимир Осенев, Евгений Леонов, Ия Саввина, Эраст Гарин, Зинаида Нарышкина, Анатолий Щукин
Русские субтитры: нетОписание:Хотите узнать, где роятся дикие пчёлы? Какой прок от горшочка, если в нём закончился мёд? И какую вкуснятину можно отведать в гостях у кролика? Ответы на эти вопросы знают игрушечные зверушки – добродушный медвежонок Винни-Пух и его лучший друг Пятачок – герои одноимённой сказочной повести английского писателя Алана Александра Милна (1882-1956), с которыми российские читатели познакомились благодаря изумительному адаптированному переводу известного детского писателя Бориса Заходера. Кинематографическое рождение Винни-Пуху и его друзьям дал мэтр отечественного мультипликационного кино Фёдор Хитрук и его единомышленники – творческая группа, с которой создавалась знаменитая трилогия, в первую очередь, художники-постановщики Владимир Зуйков и Эдуард Назаров.
1. Винни-Пух
Мультфильм первый. Мы знакомимся с Винни-Пухом и его другом Пятачком. Винни пытается обмануть пчёл и раздобыть мёд, но пчёлы оказываются неправильными.
2. Винни-Пух идёт в гости
Винни-Пух и Пятачок идут в гости к Кролику. В результате этого мероприятия Пух приходит к важному выводу: не стóит слишком долго засиживаться в гостях, дабы не попасть в «безвыходное положение».
3. Винни-Пух и день забот
У ослика Иа день рождения, о котором все забыли. Но друзья есть, и они собираются дарить подарки…
Третий советский мультфильм-экранизация по одноимённой сказке А. Милна. В основе лежат четвёртая и шестая главы книги, объединённые сценаристами в одну историю. Поэтому он имеет вдвое бóльшую продолжительность. В оригинале же истории о потере хвоста осликом Иа и о его дне рождения совершенно самостоятельны, Сова даже не появляется на празднике, тем более и речи не идёт о песне «И я того же мнения», органично окаймляющей и завершающей мультфильм.Награды• 1976 — Государственная премия СССР сценаристу Борису Заходеру и режиссёру Фёдору Хитруку.
Знаете ли вы, что?..
При подборе актёров для озвучивания главных героев возникли сложности. Перепробовали множество актёров, но никто не подходил. Попробовали Евгения Леонова, но его баритон также не устроил создателя мультфильма. Тогда звукооператор неожиданно предложил немного ускорить голос быстрой перемоткой плёнки, и результат оказался замечательным. Голос попал точно в персонажа. Тот же приём использовали для Пятачка.
По словам создателей, Пятачок на первоначальных эскизах напоминал толстую колбаску, а Винни-Пух, до того как его срисовали с Евгения Леонова, был похож на взбесившийся одуванчик.
Режиссёр и команда
Режиссёры Фёдор Хитрук, Геннадий Сокольский
сценаристы: Борис Заходер, Фёдор Хитрук
художники-постановщики: Эдуард Назаров, Владимир Зуйков
xудожники: Татьяна Казанцева, София Митрофанова, О. Воробьёва, О. Купрач
Мультипликаторы:
1) Мария Мотрук, Геннадий Сокольский, Наталия Богомолова, Виолетта Колесникова, Светлана Жутовская;
2) Мария Мотрук, Геннадий Сокольский, Эльвира Маслова, Игорь Подгорский, Валерий Угаров, Светлана Жутовская;
3) Мария Мотрук, Геннадий Сокольский, Эльвира Маслова, Анатолий Солин, Галина Баринова, Юрий Бутырин, Наталия Богомолова, Виолетта Колесникова, Елена Малашенкова, Ольга Орлова
операторы: Н. Климова (1), Михаил Друян (2, 3)
композитор: Моисей Вайнберг
звукооператор: Георгий Мартынюк
редактор Раиса Фричинская
монтажёр Нина Майорова (1), Изабелла Герасимова (3)
Директор картины: Любовь Бутырина
Роли озвучивали: Владимир Осенев (от автора), Евгений Леонов (Винни-Пух), Ия Саввина (Пятачок), Эраст Гарин (Ослик Иа), Зинаида Нарышкина (Сова), Анатолий Щукин (Кролик).
Качество: DVDRip
Формат: AVI
Видео: 704x544 (1.29:1), 25 fps, XviD build 64 ~ 2383-2395 kbps avg, 0.25 bit/pixel
Аудио: 48 kHz, AC3 Dolby Digital, 2/0 (L,R) ch, ~224 kbps
Субтитры: отсутствуют
Подробные технические данные
1.ОбщееПолное имя : D:\Мульты\Винни-Пух 1, 2, 3 (Хитрук)\1. Винни-Пух.aviФормат : AVIФормат/Информация : Audio Video InterleaveРазмер файла : 198 МбайтПродолжительность : 10 м.Общий поток : 2629 Кбит/секПрограмма кодирования : VirtualDubMod 1.5.10.2 (build 2540/release)Библиотека кодирования : VirtualDubMod build 2540/release
ВидеоИдентификатор : 0Формат : MPEG-4 VisualПрофиль формата : Advanced Simple@L5Параметр BVOP формата : 2Параметр QPel формата : НетПараметр GMC формата : Без точки переходаПараметр матрицы формата : ВыборочнаяИдентификатор кодека : XVIDИдентификатор кодека/Подсказка : XviDПродолжительность : 10 м.Битрейт : 2395 Кбит/секШирина : 704 пикселяВысота : 544 пикселяСоотношение сторон : 1,294Частота кадров : 25,000 кадров/секЦветовое пространство : YUVСубдискретизация насыщенности : 4:2:0Битовая глубина : 8 битТип развёртки : ПрогрессивнаяМетод сжатия : С потерямиБит/(Пиксели*Кадры) : 0.250Размер потока : 181 Мбайт (91%)Библиотека кодирования : XviD 64
АудиоИдентификатор : 1Формат : AC-3Формат/Информация : Audio Coding 3Расширение режима : CM (complete main)Идентификатор кодека : 2000Продолжительность : 10 м.Вид битрейта : ПостоянныйБитрейт : 224 Кбит/секКаналы : 2 каналаРасположение каналов : Front: L RЧастота : 48,0 КГцБитовая глубина : 16 битМетод сжатия : С потерямиРазмер потока : 16,9 Мбайт (9%)Выравнивание : Разделение по промежуткамПродолжительность промежутка : 40 мс. (1,00 видеокадр)Время предзагрузки промежутка : 500 мс.
2.ОбщееПолное имя : D:\Мульты\Винни-Пух 1, 2, 3 (Хитрук)\2. Винни-Пух идёт в гости.aviФормат : AVIФормат/Информация : Audio Video InterleaveРазмер файла : 187 МбайтПродолжительность : 9 м. 57 с.Общий поток : 2617 Кбит/секПрограмма кодирования : VirtualDubMod 1.5.10.2 (build 2540/release)Библиотека кодирования : VirtualDubMod build 2540/release
ВидеоИдентификатор : 0Формат : MPEG-4 VisualПрофиль формата : Advanced Simple@L5Параметр BVOP формата : 2Параметр QPel формата : НетПараметр GMC формата : Без точки переходаПараметр матрицы формата : ВыборочнаяИдентификатор кодека : XVIDИдентификатор кодека/Подсказка : XviDПродолжительность : 9 м. 57 с.Битрейт : 2383 Кбит/секШирина : 704 пикселяВысота : 544 пикселяСоотношение сторон : 1,294Частота кадров : 25,000 кадров/секЦветовое пространство : YUVСубдискретизация насыщенности : 4:2:0Битовая глубина : 8 битТип развёртки : ПрогрессивнаяМетод сжатия : С потерямиБит/(Пиксели*Кадры) : 0.249Размер потока : 170 Мбайт (91%)Библиотека кодирования : XviD 64
АудиоИдентификатор : 1Формат : AC-3Формат/Информация : Audio Coding 3Расширение режима : CM (complete main)Идентификатор кодека : 2000Продолжительность : 9 м. 57 с.Вид битрейта : ПостоянныйБитрейт : 224 Кбит/секКаналы : 2 каналаРасположение каналов : Front: L RЧастота : 48,0 КГцБитовая глубина : 16 битМетод сжатия : С потерямиРазмер потока : 16,0 Мбайт (9%)Выравнивание : Разделение по промежуткамПродолжительность промежутка : 40 мс. (1,00 видеокадр)Время предзагрузки промежутка : 500 мс.
3.ОбщееПолное имя : D:\Мульты\Винни-Пух 1, 2, 3 (Хитрук)\3. Винни-Пух и день забот.aviФормат : AVIФормат/Информация : Audio Video InterleaveРазмер файла : 367 МбайтПродолжительность : 19 м.Общий поток : 2627 Кбит/секПрограмма кодирования : VirtualDubMod 1.5.10.2 (build 2540/release)Библиотека кодирования : VirtualDubMod build 2540/release
ВидеоИдентификатор : 0Формат : MPEG-4 VisualПрофиль формата : Advanced Simple@L5Параметр BVOP формата : 2Параметр QPel формата : НетПараметр GMC формата : Без точки переходаПараметр матрицы формата : ВыборочнаяИдентификатор кодека : XVIDИдентификатор кодека/Подсказка : XviDПродолжительность : 19 м.Битрейт : 2393 Кбит/секШирина : 704 пикселяВысота : 544 пикселяСоотношение сторон : 1,294Частота кадров : 25,000 кадров/секЦветовое пространство : YUVСубдискретизация насыщенности : 4:2:0Битовая глубина : 8 битТип развёртки : ПрогрессивнаяМетод сжатия : С потерямиБит/(Пиксели*Кадры) : 0.250Размер потока : 334 Мбайт (91%)Библиотека кодирования : XviD 64
АудиоИдентификатор : 1Формат : AC-3Формат/Информация : Audio Coding 3Расширение режима : CM (complete main)Идентификатор кодека : 2000Продолжительность : 19 м.Вид битрейта : ПостоянныйБитрейт : 224 Кбит/секКаналы : 2 каналаРасположение каналов : Front: L RЧастота : 48,0 КГцБитовая глубина : 16 битМетод сжатия : С потерямиРазмер потока : 31,3 Мбайт (9%)Выравнивание : Разделение по промежуткамПродолжительность промежутка : 40 мс. (1,00 видеокадр)Время предзагрузки промежутка : 500 мс.
Скриншоты
1. Винни-Пух 2. Винни-Пух идёт в гости 3. Винни-Пух и день забот -Сравнение [url=http://***/forum/viewtopic.php?t=50094]реставрированного DVD[/url] и [url=http://***/forum/viewtopic.php?t=3434576]DVD, с которого сделан рип[/url]:
http://screenshotcomparison.com/comparison/107948
http://screenshotcomparison.com/comparison/107949/picture:5- [url=http://***/forum/tracker.php?rid=1126257#results]Все раздачи[/url]
Скачать

Скачать торрент!

Как скачивать? · Что такое торрент? · Рейтинг и ограничения

Сайт не распространяет и не хранит электронные версии произведений, а лишь предоставляет доступ к создаваемому пользователями каталогу ссылок на торрент-файлы, которые содержат только списки хеш-сумм

[Профиль] [ЛС]
Показать сообщения:    
Ответить на тему

Текущее время: Сегодня 18:18

Часовой пояс: GMT + 4



Вы не можете начинать темы
Вы не можете отвечать на сообщения
Вы не можете редактировать свои сообщения
Вы не можете удалять свои сообщения
Вы не можете голосовать в опросах
Вы не можете прикреплять файлы к сообщениям
Вы не можете скачивать файлы