Солана и Людвиг – Рождество в Флоклипа / Solan og Ludvig - Jul i Flåklypa (Расмус А. Сивертсен / Rasmus A. Sivertsen) [2013, Мультфильм, семейный, приключения, экранизация, по, SATRip] Dub

Ответить на тему
 
Автор Сообщение

user ®

Стаж: 13 лет

Сообщений: 15041

Пост Пост: #1 от 07-Янв-2015 04:05

[Цитировать]

Солана и Людвиг – Рождество в Флоклипа / Solan og Ludvig - Jul i Flåklypa
Страна: Норвегия, Aukruststiftelsen, Maipo Film, Qvisten Animation
Жанр: Мультфильм, семейный, приключения, экранизация, полнометражный
Продолжительность: 01:13:13
Год выпуска: 2013
Перевод: Профессиональный (дублированный)
Русские субтитры: нет
Режиссёр: Расмус А. Сивертсен / Rasmus A. Sivertsen
Роли озвучивали: Кари Анн Грёнсунд, Тронд Хёвик, Тронд Бренне, Каре Конради, Андерс Бай, Якоб Офтебро, Эли Анне Линнестад, Эйлиф Хеллум Норакер
Описание: "Солан и Людвиг - Рождество во Флоклипе" - продолжение истории о полюбившихся всем персонажах Солане, Людвиге и Реодоре Фельгене. На сей раз они готовятся к Рождеству. Единственная проблема заключается в том, что в деревне не выпал снег, а этого Людвигу хочется больше всего. Поэтому изобретатель Реодор изготавливает самую мощную в мире снеговую пушку. Она попадает в руки редактора местной газеты Фриманда Плёсена, мечтающего о снежном буране. Тут-то и начинаются проблемы: бушует метель, Реодор исчез, и Солану с Людвигом приходится самим разбираться во всем этом хаосе.
Сэмпл: http://sendfile.su/1070448
Качество: SATRip
Формат: AVI
Видео: Xvid 720x400 25fps 1 800 Kbps
Аудио: AC3 48000Hz stereo 192kbps
Субтитры: отсутствуют
Подробные технические данные
C:\Users\Dmitriy\Documents\Солана и Людвиг - Рождество в Флоклипа.2013.XviD.SATRip.avi General Complete name : C:\Users\Dmitriy\Documents\Солана и Людвиг - Рождество в Флоклипа.2013.XviD.SATRip.avi Format : AVI Format/Info : Audio Video Interleave File size : 1.02 GiB Duration : 1h 13mn Overall bit rate : 2 002 Kbps Movie name : Solan og Ludvig - Jul i Flaklypa Director : SATRip by Thunder Writing application : VirtualDubMod 1.5.10.3 | www.virtualdub-fr.org || (build 2550/release) Original source form/Name : Cartoon Video #0 ID : 0 Format : MPEG-4 Visual Format profile : Advanced Simple@L5 Format settings, BVOP : Yes Format settings, QPel : No Format settings, GMC : No warppoints Format settings, Matrix : Default (H.263) Codec ID : XVID Codec ID/Hint : XviD Duration : 1h 13mn Bit rate : 1 800 Kbps Width : 720 pixels Height : 400 pixels Display aspect ratio : 16:9 Frame rate : 25.000 fps Color space : YUV Chroma subsampling : 4:2:0 Bit depth : 8 bits Scan type : Progressive Bits/(Pixel*Frame) : 0.250 Stream size : 943 MiB (90%) Writing library : XviD 1.2.1 (UTC 2008-12-04) Audio #1 ID : 1 Format : AC-3 Format/Info : Audio Coding 3 Mode extension : CM (complete main) Codec ID : 2000 Duration : 1h 13mn Bit rate mode : Constant Bit rate : 192 Kbps Channel(s) : 2 channels Channel positions : Front: L R Sampling rate : 48.0 KHz Bit depth : 16 bits Stream size : 101 MiB (10%) Alignment : Split accross interleaves Interleave, duration : 40 ms (1.00 video frame) Interleave, preload duration : 500 ms
Скриншоты
Скачать

Скачать торрент! Солана и Людвиг – Рождество в Флоклипа / Solan og Ludvig - Jul i Flåklypa (Расмус А. Сивертсен / Rasmus A. Sivertsen) [2013, Мультфильм, семейный, приключения, экранизация, по, SATRip] Dub

Как скачивать? · Что такое торрент? · Рейтинг и ограничения

Сайт не распространяет и не хранит электронные версии произведений, а лишь предоставляет доступ к создаваемому пользователями каталогу ссылок на торрент-файлы, которые содержат только списки хеш-сумм

[Профиль] [ЛС]
Показать сообщения:    
Ответить на тему

Текущее время: Сегодня 01:35

Часовой пояс: GMT + 4



Вы не можете начинать темы
Вы не можете отвечать на сообщения
Вы не можете редактировать свои сообщения
Вы не можете удалять свои сообщения
Вы не можете голосовать в опросах
Вы не можете прикреплять файлы к сообщениям
Вы не можете скачивать файлы