Пришелец в капусте / Пришелец Ванюша / Ванюша и космический пират / Ванюша и великан (Владимир Данилевич) [1989-1993, кукольный мультфильм, DVB]

Ответить на тему
 
Автор Сообщение

user ®

Стаж: 7 лет 7 месяцев

Сообщений: 20008

Пост Пост: #1 от 07-Янв-2015 04:05

[Цитировать]

Пришелец в капусте, Пришелец Ванюша, Ванюша и космический пират, Ванюша и великан
Год выпуска: 1989-1993
Страна: СCCР, Россия
Жанр: кукольный мультфильм
Продолжительность: 00:09:23 + 00:08:24 + 00:09:43 + 00:08:50
Русские субтитры: нет
Режиссёр: Владимир Данилевич
Описание: Сборник мультфильмов про инопланетянина Ванюшу. Современная фантастическая сказка для детей с участием Деда, Бабы их внука-инопланетянина Ванюши...
1. "Пришелец в капусте. 1 серия" 1989г
2. "Пришелец Ванюша. 2 серия" 1990г.
3. "Ванюша и космический пират. 3 серия" 1991г.
4. "Ванюша и великан. 4 серия" 1993г.
Доп. информация:

Релиз группы:
Трансляция спутникового канала:

Качество видео: DVB
Формат видео: MPEG-PS
Видео: MPEG2 Video, 720x576 (4:3), 25 fps, 3200 kbps
Аудио: MPEG Audiо, 2 сh, 48 kHz, 192 kbps
Сравнение
[url=http://***/forum/viewtopic.php?t=2640172]http://***/forum/viewtopic.php?t=2640172[/url]
http://screenshotcomparison.com/comparison/107634 1 серия
http://screenshotcomparison.com/comparison/107805 2 серия
http://screenshotcomparison.com/comparison/107809 3 серия
http://screenshotcomparison.com/comparison/107810 4 серия
MediaInfo
General
Complete name : D:\Пришелец в капусте\1c. Пришелец в капусте. (1989)_DVB by SLuMeP.mpg
Format : MPEG-PS
File size : 256 MiB
Duration : 9mn 23s
Overall bit rate mode : Variable
Overall bit rate : 3 811 Kbps
Video
ID : 224 (0xE0)
Format : MPEG Video
Format version : Version 2
Format profile : Main@Main
Format settings, BVOP : No
Format settings, Matrix : Custom
Format settings, GOP : M=3, N=12
Duration : 9mn 23s
Bit rate mode : Variable
Bit rate : 3 543 Kbps
Maximum bit rate : 5 000 Kbps
Width : 720 pixels
Height : 576 pixels
Display aspect ratio : 4:3
Frame rate : 25.000 fps
Standard : PAL
Color space : YUV
Chroma subsampling : 4:2:0
Bit depth : 8 bits
Scan type : Interlaced
Scan order : Top Field First
Compression mode : Lossy
Bits/(Pixel*Frame) : 0.342
Time code of first frame : 00:00:00:00
Time code source : Group of pictures header
Stream size : 238 MiB (93%)
Audio
ID : 192 (0xC0)
Format : MPEG Audio
Format version : Version 1
Format profile : Layer 2
Duration : 9mn 23s
Bit rate mode : Constant
Bit rate : 192 Kbps
Channel(s) : 2 channels
Sampling rate : 48.0 KHz
Compression mode : Lossy
Stream size : 12.9 MiB (5%)
Скриншоты
Скачать

Скачать торрент!

Как скачивать? · Что такое торрент? · Рейтинг и ограничения

Сайт не распространяет и не хранит электронные версии произведений, а лишь предоставляет доступ к создаваемому пользователями каталогу ссылок на торрент-файлы, которые содержат только списки хеш-сумм

[Профиль] [ЛС]
Показать сообщения:    
Ответить на тему

Текущее время: Сегодня 00:07

Часовой пояс: GMT + 4



Вы не можете начинать темы
Вы не можете отвечать на сообщения
Вы не можете редактировать свои сообщения
Вы не можете удалять свои сообщения
Вы не можете голосовать в опросах
Вы не можете прикреплять файлы к сообщениям
Вы не можете скачивать файлы