Приключения слоненка DENDY (Андрей Игнатенко, Роман Митрофанов)[1996, мультфильм, DVB]

Ответить на тему
 
Автор Сообщение

user ®

Стаж: 7 лет 7 месяцев

Сообщений: 20008

Пост Пост: #1 от 07-Янв-2015 04:05

[Цитировать]

Приключения слоненка DENDY
Год выпуска: 1996
Страна: Россия
Жанр: мультфильм
Продолжительность: 00:12:55
Режиссёры: Андрей Игнатенко, Роман Митрофанов
Описание: мультфильм о том, как находчивый слоненок Дэнди спасает город от нашествия крыс ...
Доп. информация:

Релиз группы:
Трансляция спутникового канала:

Качество видео: DVB
Формат видео: MPEG-PS
Видео: MPEG2 Video, 704x576 (4:3), 25 fps, 2000 kbps
Аудио: MPEG Audiо, 2 сh, 48 kHz, 192 kbps
MediaInfo
General
Complete name : D:\Приключения слоненка Денди. (1996)_DVB by SLuMeP.mpg
Format : MPEG-PS
File size : 200 MiB
Duration : 12mn 55s
Overall bit rate mode : Variable
Overall bit rate : 2 161 Kbps
Video
ID : 224 (0xE0)
Format : MPEG Video
Format version : Version 2
Format profile : Main@Main
Format settings, BVOP : No
Format settings, Matrix : Custom
Format settings, GOP : Variable
Duration : 12mn 55s
Bit rate mode : Variable
Bit rate : 1 926 Kbps
Maximum bit rate : 15.0 Mbps
Width : 704 pixels
Height : 576 pixels
Display aspect ratio : 4:3
Frame rate : 25.000 fps
Standard : PAL
Color space : YUV
Chroma subsampling : 4:2:0
Bit depth : 8 bits
Scan type : Interlaced
Scan order : Top Field First
Compression mode : Lossy
Bits/(Pixel*Frame) : 0.190
Time code of first frame : 00:00:00:00
Time code source : Group of pictures header
Stream size : 178 MiB (89%)
Audio
ID : 192 (0xC0)
Format : MPEG Audio
Format version : Version 1
Format profile : Layer 2
Duration : 12mn 55s
Bit rate mode : Constant
Bit rate : 192 Kbps
Channel(s) : 2 channels
Sampling rate : 48.0 KHz
Compression mode : Lossy
Stream size : 17.7 MiB (9%)
Скриншоты
Скачать

Скачать торрент!

Как скачивать? · Что такое торрент? · Рейтинг и ограничения

Сайт не распространяет и не хранит электронные версии произведений, а лишь предоставляет доступ к создаваемому пользователями каталогу ссылок на торрент-файлы, которые содержат только списки хеш-сумм

[Профиль] [ЛС]
Показать сообщения:    
Ответить на тему

Текущее время: Сегодня 00:09

Часовой пояс: GMT + 4



Вы не можете начинать темы
Вы не можете отвечать на сообщения
Вы не можете редактировать свои сообщения
Вы не можете удалять свои сообщения
Вы не можете голосовать в опросах
Вы не можете прикреплять файлы к сообщениям
Вы не можете скачивать файлы