Самурай: Поединок на острове Ганрю / Samurai: Duel on Ganryu Island / Miyamoto Musashi kanketsuhen: kettô Ganryûjima (Хироси Инагаки / Hiroshi Inagaki) [1956, Япония, боевик, драма, приключения, биография, история, DVDRip] MVO

Ответить на тему
 
Автор Сообщение

user ®

Стаж: 13 лет

Сообщений: 15071

Пост Пост: #1 от 07-Янв-2015 04:05

[Цитировать]

Самурай: Поединок на острове Ганрю / Samurai: Duel on Ganryu Island / Miyamoto Musashi kanketsuhen: kettô Ganryûjima- -Страна: Япония
Жанр: боевик, драма, приключения, биография, история
Год выпуска: 1956
Продолжительность: 01:44:20-Перевод: Профессиональный (многоголосый закадровый)-Cубтитры: нет
Оригинальная аудиодорожка: нет
Режиссер: Хироси Инагаки / Hiroshi Inagaki
В ролях: Тосиро Мифунэ, Кодзи Цурута, Каору Ятигуса, Мичико Сага, Марико Окада, Такаси Симура, Минору Чиаки, Такамару Сасаки, Дайскэ Като, Харуо Танака...
Описание: Бескомпромиссное и завораживающее завершение летописи доблестного пути Миямото Мусаси. Именитый защитник добра и справедливости намерен уйти на покой, но на горизонте вновь появляется тень его заклятого врага Сасаки Кодзиро. Тучи сгущаются над островом Ганрью, где великим самураям суждено сойтись в решающей битве…
Релиз от -
Сэмпл: http://multi-up.com/1024851
Качество видео: DVDRip
Формат видео: AVI
Видео: MPEG-4 Visual at 1608 Кбит/сек; 704 x 544 (1.294) at 23.976 fps
Аудио: AC-3 at 384 Кбит/сек; 6 каналов, 48,0 КГц
Автор -
MediaInfo
Общее
Полное имя : D:\Фильмы\Азиатские\Самурай 3\Samurai.Duel on Ganryu Island.1954.DVDRip.XviD.1400MB. rip by [Assassin's Creed].avi
Формат : AVI
Формат/Информация : Audio Video Interleave
Размер файла : 1,46 Гбайт
Продолжительность : 1 ч. 44 м.
Общий поток : 2001 Кбит/сек
Программа кодирования : VirtualDubMod 1.5.10.3 | www.virtualdub-fr.org || (build 2550/release)
Библиотека кодирования : VirtualDubMod build 2550/release
Видео
Идентификатор : 0
Формат : MPEG-4 Visual
Профиль формата : Advanced Simple@L5
Параметр BVOP формата : 1
Параметр QPel формата : Нет
Параметр GMC формата : Без точки перехода
Параметр матрицы формата : Default (MPEG)
Идентификатор кодека : XVID
Идентификатор кодека/Подсказка : XviD
Продолжительность : 1 ч. 44 м.
Битрейт : 1608 Кбит/сек
Ширина : 704 пикселя
Высота : 544 пикселя
Соотношение сторон : 1,294
Частота кадров : 23,976 кадра/сек
Цветовое пространство : YUV
Субдискретизация насыщенности : 4:2:0
Битовая глубина : 8 бит
Тип развёртки : Прогрессивная
Метод сжатия : С потерями
Бит/(Пиксели*Кадры) : 0.175
Размер потока : 1,17 Гбайт (80%)
Библиотека кодирования : XviD 1.2.1 (UTC 2008-12-04)
Аудио
Идентификатор : 1
Формат : AC-3
Формат/Информация : Audio Coding 3
Расширение режима : CM (complete main)
Параметр Endianness формата : Big
Идентификатор кодека : 2000
Продолжительность : 1 ч. 44 м.
Вид битрейта : Постоянный
Битрейт : 384 Кбит/сек
Каналы : 6 каналов
Расположение каналов : Front: L C R, Side: L R, LFE
Частота : 48,0 КГц
Битовая глубина : 16 бит
Метод сжатия : С потерями
Размер потока : 287 Мбайт (19%)
Выравнивание : Разделение по промежуткам
Продолжительность промежутка : 42 мс. (1,00 видеокадр)
Время предзагрузки промежутка : 500 мс.
Скриншот c названием фильма Скриншоты
Скачать

Скачать торрент! Самурай: Поединок на острове Ганрю / Samurai: Duel on Ganryu Island / Miyamoto Musashi kanketsuhen: kettô Ganryûjima (Хироси Инагаки / Hiroshi Inagaki) [1956, Япония, боевик, драма, приключения, биография, история, DVDRip] MVO

Как скачивать? · Что такое торрент? · Рейтинг и ограничения

Сайт не распространяет и не хранит электронные версии произведений, а лишь предоставляет доступ к создаваемому пользователями каталогу ссылок на торрент-файлы, которые содержат только списки хеш-сумм

[Профиль] [ЛС]
Показать сообщения:    
Ответить на тему

Текущее время: Сегодня 21:22

Часовой пояс: GMT + 4



Вы не можете начинать темы
Вы не можете отвечать на сообщения
Вы не можете редактировать свои сообщения
Вы не можете удалять свои сообщения
Вы не можете голосовать в опросах
Вы не можете прикреплять файлы к сообщениям
Вы не можете скачивать файлы