Встречи и Расставания / Podaa Podi (Вигнеш Шива / Vignesh Shiva) [2012, Индия, Мелодрама, комедия, WEB-DLRip-AVC] MVO (SDI Media)

Ответить на тему
 
Автор Сообщение

user ®

Стаж: 12 лет

Сообщений: 15092

Пост Пост: #1 от 07-Янв-2015 04:05

[Цитировать]

Встречи и Расставания / Podaa Podi
Страна: Индия
Жанр: Мелодрама, комедия
Год выпуска: 2012
Продолжительность: 01:59:30
Перевод: Профессиональный (многоголосый закадровый) SDI Media по заказу Red Media
Cубтитры: нет
Режиссер: Вигнеш Шива / Vignesh Shiva
В ролях: Т.Р. Силамбарасан, Варалакшми Сараткумар, Шобана, Ганеш, Джефф Уорден, Самарт, Ник Томас-Уэбстер, Бенджей Икс Мерфи
Описание: Арджун художник-аниматор, живет в Лондоне с дядей. Однажды в пабе он встречает Нишу - начинающую танцовщицу. Они начинают встречаться. Однако, Арджуну не нравится, что Ниша занимается сальсой и не нравится ее партнер по танцам Моджо. Тем не менее, Арджун и Ниша женятся. После свадьбы Ниша вдруг осознает, что хочет продолжать заниматься танцами, поехать на конкурс и сделать карьеру танцовщицы. Арджун к несчастью считает, что место женщины исключительно на кухне. Дядя советует им завести ребенка, чтобы жена забыла о карьере...
Доп. информация: Релиз: Кинозал.ТВ
Сведение звука: oktober (Спасибо!)
Сэмпл: http://multi-up.com/1024797
Качество видео: WEB-DLRip-AVC
Формат видео: MKV
Видео: 720x304 (2.368:1), 23.976 fps, AVC, ~ 1414 Kbps, 0.269 bits/pixel
Аудио: Русский, 48 KHz, АС3, 2 ch, 192 Kbps
MediaInfo
General
Complete name : F:\Vstrechi.I.Rasstavaniya.2012.X264.WEB-DLRip.Oktober.mkv
Format : Matroska
File size : 1.37 GiB
Duration : 1h 59mn
Overall bit rate : 1 639 Kbps
Encoded date : UTC 2015-01-02 21:17:18
Writing application : mkvmerge v6.1.0 ('Old Devil') built on Mar 4 2013 09:10:42
Writing library : libebml v1.3.0 + libmatroska v1.4.0
Video
ID : 1
Format : AVC
Format/Info : Advanced Video Codec
Format profile : High@L3.0
Format settings, CABAC : Yes
Format settings, ReFrames : 5 frames
Muxing mode : Container profile=Unknown@3.0
Codec ID : V_MPEG4/ISO/AVC
Duration : 1h 59mn
Bit rate : 1 414 Kbps
Nominal bit rate : 1 445 Kbps
Width : 720 pixels
Height : 304 pixels
Display aspect ratio : 2.35
Frame rate : 23.976 fps
Resolution : 24 bits
Colorimetry : 4:2:0
Scan type : Progressive
Bits/(Pixel*Frame) : 0.269
Stream size : 1.18 GiB (86%)
Writing library : x264 core 130 r2273 b3065e6
Encoding settings : cabac=1 / ref=5 / deblock=1:0:0 / analyse=0x3:0x113 / me=umh / subme=8 / psy=1 / psy_rd=1.00:0.00 / mixed_ref=1 / me_range=16 / chroma_me=1 / trellis=1 / 8x8dct=1 / cqm=0 / deadzone=21,11 / fast_pskip=1 / chroma_qp_offset=-2 / threads=6 / lookahead_threads=1 / sliced_threads=0 / nr=0 / decimate=1 / interlaced=0 / bluray_compat=0 / constrained_intra=0 / bframes=3 / b_pyramid=2 / b_adapt=2 / b_bias=0 / direct=3 / weightb=1 / open_gop=0 / weightp=2 / keyint=250 / keyint_min=23 / scenecut=40 / intra_refresh=0 / rc_lookahead=50 / rc=abr / mbtree=1 / bitrate=1445 / ratetol=1.0 / qcomp=0.60 / qpmin=0 / qpmax=69 / qpstep=4 / ip_ratio=1.40 / aq=1:1.00
Audio
ID : 2
Format : AC-3
Format/Info : Audio Coding 3
Codec ID : A_AC3
Duration : 1h 59mn
Bit rate mode : Constant
Bit rate : 192 Kbps
Channel(s) : 2 channels
Channel positions : L R
Sampling rate : 48.0 KHz
Stream size : 164 MiB (12%)
Скриншоты
Скачать

Скачать торрент! Встречи и Расставания / Podaa Podi (Вигнеш Шива / Vignesh Shiva) [2012, Индия, Мелодрама, комедия, WEB-DLRip-AVC] MVO (SDI Media)

Как скачивать? · Что такое торрент? · Рейтинг и ограничения

Сайт не распространяет и не хранит электронные версии произведений, а лишь предоставляет доступ к создаваемому пользователями каталогу ссылок на торрент-файлы, которые содержат только списки хеш-сумм

[Профиль] [ЛС]
Показать сообщения:    
Ответить на тему

Текущее время: Сегодня 18:31

Часовой пояс: GMT + 4



Вы не можете начинать темы
Вы не можете отвечать на сообщения
Вы не можете редактировать свои сообщения
Вы не можете удалять свои сообщения
Вы не можете голосовать в опросах
Вы не можете прикреплять файлы к сообщениям
Вы не можете скачивать файлы