Два мгновения любви / Pyar Ke Do Pal (Раджив Мехра / Rajiv Mehra) [1986, Индия, Мелодрама, DVDRip-AVC] MVO (Red Media)

Ответить на тему
 
Автор Сообщение

user ®

Стаж: 12 лет

Сообщений: 15092

Пост Пост: #1 от 07-Янв-2015 04:05

[Цитировать]

Два мгновения любви / Pyar Ke Do Pal
Страна: Индия
Жанр: Мелодрама
Год выпуска: 1986
Продолжительность: 02:28:33
Перевод: Профессиональный (многоголосый закадровый) Red Media
Cубтитры: нет
Режиссер: Раджив Мехра / Rajiv Mehra
В ролях: Митхун Чакраборти, Джая Прада, Бинду, Симпл Кападия, Тику Талсания, Лалита Павар, Ашутош Тхакур, Амрит Пал, Кришан Дхаван, Джагдип, Сатиендра Капур, Шобха Кхоте, Анджан Шривастав, Виджай
Описание: Восьмилетний Сунил живет со своим отцом Ашоком в роскошном поместье. Папа души не чает в сыне, и тот отвечает ему взаимностью. Свою маму мальчик даже не помнит, а на вопрос к няне, что с ней, получает уклончивый ответ. К тому же, та предупреждает Сунила, чтобы он ни в коем случае не говорил о матери с отцом, поскольку он смертельно ненавидит бывшую жену Гиту. В скаутском лагере, куда вскоре отправляется Сунил, он видит мальчика, как две капли воды похожего на него самого. Анил живет с мамой в Бомбее. Отца своего он не помнит, но знает, что тот жив. Оказывается, что Сунил и Анил — братья-близнецы. При разводе родители «поделили» детей: Сунила взял отец, а Анила — мать. Мальчики принимают решение во что бы то ни стало воссоединить родителей, а заодно выяснить, что же привело к их разрыву…
Доп. информация: Релиз: Кинозал.ТВ
Сведение звука: oktober (Спасибо!)
Сэмпл: http://multi-up.com/1024828
Качество видео: DVDRip-AVC
Формат видео: MKV
Видео: 640x336 (1.905:1), 23.976 fps, AVC, ~ 1192 Kbps, 0.231 bits/pixel
Аудио: Русский, 48 KHz, АС3, 2 ch, 192 Kbps
MediaInfo
General
Complete name : F:\Dva.Mgnoveniya.Lubvi.1986.X264.DVDRip.Oktober.mkv
Format : Matroska
File size : 1.47 GiB
Duration : 2h 28mn
Overall bit rate : 1 413 Kbps
Encoded date : UTC 2014-12-28 18:47:34
Writing application : mkvmerge v5.6.0 ('Kenya Kane') built on May 27 2012 16:44:04
Writing library : libebml v1.2.3 + libmatroska v1.3.0
Video
ID : 1
Format : AVC
Format/Info : Advanced Video Codec
Format profile : High@L2.2
Format settings, CABAC : Yes
Format settings, ReFrames : 5 frames
Muxing mode : Container profile=Unknown@2.2
Codec ID : V_MPEG4/ISO/AVC
Duration : 2h 28mn
Bit rate : 1 192 Kbps
Nominal bit rate : 1 220 Kbps
Width : 640 pixels
Height : 336 pixels
Display aspect ratio : 1.905
Frame rate : 23.976 fps
Resolution : 24 bits
Colorimetry : 4:2:0
Scan type : Progressive
Bits/(Pixel*Frame) : 0.231
Stream size : 1.24 GiB (84%)
Title : два мгновения любви
Writing library : x264 core 130 r2273 b3065e6
Encoding settings : cabac=1 / ref=5 / deblock=1:0:0 / analyse=0x3:0x113 / me=umh / subme=8 / psy=1 / psy_rd=1.00:0.00 / mixed_ref=1 / me_range=16 / chroma_me=1 / trellis=1 / 8x8dct=1 / cqm=0 / deadzone=21,11 / fast_pskip=1 / chroma_qp_offset=-2 / threads=6 / lookahead_threads=1 / sliced_threads=0 / nr=0 / decimate=1 / interlaced=0 / bluray_compat=0 / constrained_intra=0 / bframes=3 / b_pyramid=2 / b_adapt=2 / b_bias=0 / direct=3 / weightb=1 / open_gop=0 / weightp=2 / keyint=250 / keyint_min=23 / scenecut=40 / intra_refresh=0 / rc_lookahead=50 / rc=abr / mbtree=1 / bitrate=1220 / ratetol=1.0 / qcomp=0.60 / qpmin=0 / qpmax=69 / qpstep=4 / ip_ratio=1.40 / aq=1:1.00
Language : Russian
Audio
ID : 2
Format : AC-3
Format/Info : Audio Coding 3
Codec ID : A_AC3
Duration : 2h 28mn
Bit rate mode : Constant
Bit rate : 192 Kbps
Channel(s) : 2 channels
Channel positions : L R
Sampling rate : 48.0 KHz
Stream size : 204 MiB (14%)
Title : два мгновения любви
Language : Russian
Скриншоты
Скачать

Скачать торрент! Два мгновения любви / Pyar Ke Do Pal (Раджив Мехра / Rajiv Mehra) [1986, Индия, Мелодрама, DVDRip-AVC] MVO (Red Media)

Как скачивать? · Что такое торрент? · Рейтинг и ограничения

Сайт не распространяет и не хранит электронные версии произведений, а лишь предоставляет доступ к создаваемому пользователями каталогу ссылок на торрент-файлы, которые содержат только списки хеш-сумм

[Профиль] [ЛС]
Показать сообщения:    
Ответить на тему

Текущее время: Сегодня 05:39

Часовой пояс: GMT + 4



Вы не можете начинать темы
Вы не можете отвечать на сообщения
Вы не можете редактировать свои сообщения
Вы не можете удалять свои сообщения
Вы не можете голосовать в опросах
Вы не можете прикреплять файлы к сообщениям
Вы не можете скачивать файлы