Любовь от всех болезней / Supercondriaque (Дэни Бун / Dany Boon) [2014, Франция, комедия, HDRip] Dub

Ответить на тему
 
Автор Сообщение

user ®

Стаж: 7 лет 7 месяцев

Сообщений: 20008

Пост Пост: #1 от 07-Янв-2015 04:05

[Цитировать]

Любовь от всех болезней / Supercondriaque

Год выпуска: 2014
Страна: Франция
Жанр: комедия
Продолжительность: 01:47:29
Перевод: Професиональный (полное дублирование)
Cубтитры: нет
Режиссер: Дэни Бун / Dany Boon
В ролях: Дэни Бун, Кад Мерад, Алис Поль, Жан-Ив Бертело, Жюдит Эль Зейн, Валери Боннетон, Марта Виллалонга, Бруно Лоше, Жером Коммандёр, Джонатан Коэн
Описание: Роман Фобер — чудак и ипохондрик. Он никогда не был женат. Вся его жизнь сводится к тому, чтобы выискивать у себя симптомы страшных, на деле не существующих, болезней. Каждой находкой он стремится поделиться со своим единственным другом — доктором Димитрием Звенкой. Димитрий решает помочь Роману найти женщину и таким образом излечить его от постоянной ипохондрии, которая становится невыносимой.
Автор: Scarabey
Качество видео: HDRip (исходник BDRip 720p)
Формат видео: AVI
Видео: 720x304 (2.37:1), 24 fps, XviD build 73 ~1537 kbps avg, 0.29 bit/pixel
Аудио: 48 kHz, AC3 Dolby Digital, 3/2 (L,C,R,l,r) + LFE ch, ~384 kbps

Сэмпл MediaInfo
General
Complete name : D:\Фильмы\Ljubov.ot.vseh.boleznej.2014_r5__HDRip_[Scarabey].avi
Format : AVI
Format/Info : Audio Video Interleave
File size : 1.45 GiB
Duration : 1h 47mn
Overall bit rate : 1 931 Kbps
Writing application : VirtualDubMod 1.5.10.3 | www.virtualdub-fr.org || (build 2550/release)
Writing library : VirtualDubMod build 2550/release
Video
ID : 0
Format : MPEG-4 Visual
Format profile : Advanced Simple@L5
Format settings, BVOP : 1
Format settings, QPel : No
Format settings, GMC : No warppoints
Format settings, Matrix : Custom
Codec ID : XVID
Codec ID/Hint : XviD
Duration : 1h 47mn
Bit rate : 1 538 Kbps
Width : 720 pixels
Height : 304 pixels
Display aspect ratio : 2.35:1
Frame rate : 24.000 fps
Color space : YUV
Chroma subsampling : 4:2:0
Bit depth : 8 bits
Scan type : Progressive
Compression mode : Lossy
Bits/(Pixel*Frame) : 0.293
Stream size : 1.15 GiB (80%)
Writing library : XviD 73
Audio
ID : 1
Format : AC-3
Format/Info : Audio Coding 3
Mode extension : CM (complete main)
Format settings, Endianness : Big
Codec ID : 2000
Duration : 1h 47mn
Bit rate mode : Constant
Bit rate : 384 Kbps
Channel(s) : 6 channels
Channel positions : Front: L C R, Side: L R, LFE
Sampling rate : 48.0 KHz
Bit depth : 16 bits
Compression mode : Lossy
Stream size : 295 MiB (20%)
Alignment : Split accross interleaves
Interleave, duration : 42 ms (1.00 video frame)
Interleave, preload duration : 500 ms
Скриншот с названием фильма Скриншоты
Скачать

Скачать торрент!

Как скачивать? · Что такое торрент? · Рейтинг и ограничения

Сайт не распространяет и не хранит электронные версии произведений, а лишь предоставляет доступ к создаваемому пользователями каталогу ссылок на торрент-файлы, которые содержат только списки хеш-сумм

[Профиль] [ЛС]
Показать сообщения:    
Ответить на тему

Текущее время: Сегодня 20:31

Часовой пояс: GMT + 4



Вы не можете начинать темы
Вы не можете отвечать на сообщения
Вы не можете редактировать свои сообщения
Вы не можете удалять свои сообщения
Вы не можете голосовать в опросах
Вы не можете прикреплять файлы к сообщениям
Вы не можете скачивать файлы