Пункт назначения 3 / Final Destination 3 (Джеймс Вонг / James Wong) [2006, Германия, США, Канада, ужасы, триллер, BDRip 1080p] Dub (CEE) + MVO (Киномания) + DVO (П.Гланц) + 2x AVO (Гаврилов, Королев) + Ukr (ICTV) + Original Eng + Sub Rus, Eng

Ответить на тему
 
Автор Сообщение

user ®

Стаж: 7 лет 7 месяцев

Сообщений: 20008

Пост Пост: #1 от 05-Янв-2015 23:00

[Цитировать]

Пункт назначения 3 / Final Destination 3- Год выпуска: 2006
Страна: Германия, США, Канада
Жанр: ужасы, триллер
Продолжительность: 01:32:49
Перевод: Профессиональный (полное дублирование) CEE
+ Профессиональный (многоголосый, закадровый) Киномания
+ Профессиональный (двухголосый, закадровый) П.Гланц и И.Королева
+ Авторский одноголосый А.Гаврилов
+ Авторский одноголосый В.Королев
Оригинальная звуковая дорожка: English
Субтитры: Russian (Blu-ray CEE), English-Режиссер: Джеймс Вонг / James Wong
В ролях: Мэри Элизабет Уинстэд, Райан Мерриман, Крис Лемке, Алекс Джонсон, Сэм Истон, Джесси Мосс, Джина Холден, Тексас Бэттл, Челан Симмонс, Кристал Лоу
О фильме: Главная героиня фильма — старшеклассница Венди Кристенсен, у которой однажды возникло предчувствие, что она и ее друзья станут жертвами несчастного случая, который произойдет на «американских горках».
Когда же самые страшные опасения Венди подтверждаются, то те, кто сумел все-таки обмануть смерть и выжить, оказываются вынужденными расплачиваться за то, что изменили свою судьбу…
SbR!
Релиз:
Формат: MKV
Видео: 1920x1080 at 23.976 fps, x264@L4.1, ~14000 kbps avg
Аудио #01: Russian: 48 kHz, AC3, 3/2 (L,C,R,l,r) + LFE ch, ~640 kbps |Дубляж, Blu-ray CEE|
Аудио #02: Russian: 48 kHz, AC3, 3/2 (L,C,R,l,r) + LFE ch, ~448 kbps |Многоголосый закадровый, Киномания|
Аудио #03: Russian: 48 kHz, DTS, 3/2 (L,C,R,l,r) + LFE ch, ~1509 kbps |Двухголосый закадровый, П. Гланц и И. Королёва|
Аудио #04: Russian: 48 kHz, DTS, 3/2 (L,C,R,l,r) + LFE ch, ~1509 kbps |Одноголосый закадровый, А. Гаврилов|
Аудио #05: Russian: 48 kHz, DTS, 3/2 (L,C,R,l,r) + LFE ch, ~1509 kbps |Одноголосый закадровый, В. Королёв|
Аудио #06: Ukrainian: 48 kHz, AC3, 2/0 (L,R), ~192 kbps |Многоголосый закадровый, ICTV|
Аудио #07: English: 48 kHz, DTS, 3/2 (L,C,R,l,r) + LFE ch, ~1509 kbps
Семпл-Source vs Encode
-
mInfo
Формат : Matroska
Версия формата : Version 4 / Version 2
Размер файла : 13,8 Гбайт
Продолжительность : 1 ч. 32 м.
Общий поток : 21,3 Мбит/сек
Название фильма : Final Destination 3 (2006) - Release for HDCLUB by SbR
Дата кодирования : UTC 2014-12-29 11:22:48
Программа кодирования : mkvmerge v7.3.0 ('Nouages') 64bit built on Oct 22 2014 18:53:34
Библиотека кодирования : libebml v1.3.0 + libmatroska v1.4.1
Attachment : Yes / Yes
Видео
Идентификатор : 1
Формат : AVC
Формат/Информация : Advanced Video Codec
Профиль формата : High@L4.1
Параметр CABAC формата : Да
Параметр ReFrames формата : 4 кадра
Идентификатор кодека : V_MPEG4/ISO/AVC
Продолжительность : 1 ч. 32 м.
Битрейт : 14,0 Мбит/сек
Ширина : 1920 пикселей
Высота : 1080 пикселей
Соотношение сторон : 16:9
Режим частоты кадров : Постоянный
Частота кадров : 23,976 кадра/сек
Цветовое пространство : YUV
Субдискретизация насыщенности : 4:2:0
Битовая глубина : 8 бит
Тип развёртки : Прогрессивная
Бит/(Пиксели*Кадры) : 0.282
Размер потока : 8,80 Гбайт (64%)
Заголовок : Release for HDCLUB
Библиотека кодирования : x264 core 144 r2525kMod 40bb568
Настройки программы : cabac=1 / ref=4 / deblock=1:-3:-3 / analyse=0x3:0x133 / me=umh / subme=11 / psy=1 / fade_compensate=0.00 / psy_rd=1.00:0.00 / mixed_ref=1 / me_range=32 / chroma_me=1 / trellis=2 / 8x8dct=1 / cqm=0 / deadzone=21,11 / fast_pskip=0 / chroma_qp_offset=-2 / threads=12 / lookahead_threads=2 / sliced_threads=0 / nr=0 / decimate=1 / interlaced=0 / bluray_compat=0 / constrained_intra=0 / fgo=0 / bframes=8 / b_pyramid=2 / b_adapt=2 / b_bias=0 / direct=3 / weightb=1 / open_gop=0 / weightp=2 / keyint=250 / keyint_min=23 / scenecut=40 / intra_refresh=0 / rc_lookahead=60 / rc=2pass / mbtree=0 / bitrate=14000 / ratetol=1.0 / qcomp=0.60 / qpmin=0 / qpmax=69 / qpstep=4 / cplxblur=20.0 / qblur=0.5 / vbv_maxrate=62500 / vbv_bufsize=78125 / nal_hrd=none / filler=0 / ip_ratio=1.20 / pb_ratio=1.10 / aq=1:0.80
Язык : English
Default : Да
Forced : Нет
Основные цвета : BT.709
Характеристики трансфера : BT.709
Коэффициенты матрицы : BT.709
Аудио #1
Идентификатор : 2
Формат : AC-3
Формат/Информация : Audio Coding 3
Расширение режима : CM (complete main)
Параметр Endianness формата : Big
Идентификатор кодека : A_AC3
Продолжительность : 1 ч. 32 м.
Вид битрейта : Постоянный
Битрейт : 640 Кбит/сек
Каналы : 6 каналов
Расположение каналов : Front: L C R, Side: L R, LFE
Частота : 48,0 КГц
Битовая глубина : 16 бит
Метод сжатия : С потерями
Размер потока : 425 Мбайт (3%)
Заголовок : Dub, Blu-ray CEE
Язык : Russian
Default : Да
Forced : Нет
Аудио #2
Идентификатор : 3
Формат : AC-3
Формат/Информация : Audio Coding 3
Расширение режима : CM (complete main)
Параметр Endianness формата : Big
Идентификатор кодека : A_AC3
Продолжительность : 1 ч. 32 м.
Вид битрейта : Постоянный
Битрейт : 448 Кбит/сек
Каналы : 6 каналов
Расположение каналов : Front: L C R, Side: L R, LFE
Частота : 48,0 КГц
Битовая глубина : 16 бит
Метод сжатия : С потерями
Размер потока : 297 Мбайт (2%)
Заголовок : MVO, Киномания
Язык : Russian
Default : Нет
Forced : Нет
Аудио #3
Идентификатор : 4
Формат : DTS
Формат/Информация : Digital Theater Systems
Режим : 16
Параметр Endianness формата : Big
Идентификатор кодека : A_DTS
Продолжительность : 1 ч. 32 м.
Вид битрейта : Постоянный
Битрейт : 1509 Кбит/сек
Каналы : 6 каналов
Расположение каналов : Front: L C R, Side: L R, LFE
Частота : 48,0 КГц
Битовая глубина : 24 бит
Метод сжатия : С потерями
Размер потока : 1002 Мбайт (7%)
Заголовок : Гланц и Королёва
Язык : Russian
Default : Нет
Forced : Нет
Аудио #4
Идентификатор : 5
Формат : DTS
Формат/Информация : Digital Theater Systems
Режим : 16
Параметр Endianness формата : Big
Идентификатор кодека : A_DTS
Продолжительность : 1 ч. 32 м.
Вид битрейта : Постоянный
Битрейт : 1509 Кбит/сек
Каналы : 6 каналов
Расположение каналов : Front: L C R, Side: L R, LFE
Частота : 48,0 КГц
Битовая глубина : 24 бит
Метод сжатия : С потерями
Размер потока : 1002 Мбайт (7%)
Заголовок : Гаврилов
Язык : Russian
Default : Нет
Forced : Нет
Аудио #5
Идентификатор : 6
Формат : DTS
Формат/Информация : Digital Theater Systems
Режим : 16
Параметр Endianness формата : Big
Идентификатор кодека : A_DTS
Продолжительность : 1 ч. 32 м.
Вид битрейта : Постоянный
Битрейт : 1509 Кбит/сек
Каналы : 6 каналов
Расположение каналов : Front: L C R, Side: L R, LFE
Частота : 48,0 КГц
Битовая глубина : 24 бит
Метод сжатия : С потерями
Размер потока : 1002 Мбайт (7%)
Заголовок : Королёв
Язык : Russian
Default : Нет
Forced : Нет
Аудио #6
Идентификатор : 7
Формат : AC-3
Формат/Информация : Audio Coding 3
Расширение режима : CM (complete main)
Параметр Endianness формата : Big
Идентификатор кодека : A_AC3
Продолжительность : 1 ч. 32 м.
Вид битрейта : Постоянный
Битрейт : 192 Кбит/сек
Каналы : 2 канала
Расположение каналов : Front: L R
Частота : 48,0 КГц
Битовая глубина : 16 бит
Метод сжатия : С потерями
Размер потока : 127 Мбайт (1%)
Заголовок : MVO, ICTV
Язык : Ukrainian
Default : Нет
Forced : Нет
Аудио #7
Идентификатор : 8
Формат : DTS
Формат/Информация : Digital Theater Systems
Режим : 16
Параметр Endianness формата : Big
Идентификатор кодека : A_DTS
Продолжительность : 1 ч. 32 м.
Вид битрейта : Постоянный
Битрейт : 1509 Кбит/сек
Каналы : 6 каналов
Расположение каналов : Front: L C R, Side: L R, LFE
Частота : 48,0 КГц
Битовая глубина : 24 бит
Метод сжатия : С потерями
Размер потока : 1002 Мбайт (7%)
Язык : English
Default : Нет
Forced : Нет
Текст #1
Идентификатор : 9
Формат : UTF-8
Идентификатор кодека : S_TEXT/UTF8
Идентификатор кодека/Информация : UTF-8 Plain Text
Заголовок : Blu-ray CEE
Язык : Russian
Default : Нет
Forced : Нет
Текст #2
Идентификатор : 10
Формат : UTF-8
Идентификатор кодека : S_TEXT/UTF8
Идентификатор кодека/Информация : UTF-8 Plain Text
Язык : English
Default : Нет
Forced : Нет
Меню
00:00:00.000 : en:Do You Believe in Fortunes?
00:02:34.004 : en:High Die
00:04:01.300 : en:Take a Shot of This
00:09:21.119 : en:Meet You at the End
00:14:32.138 : en:The Vision
00:21:25.718 : en:It's Happened Before
00:26:20.846 : en:Beds Are Burning
00:38:09.554 : en:Take a Dirt Nap
00:44:42.113 : en:Turn Around, Look at Me
00:49:44.415 : en:The Clues
00:52:32.208 : en:Just Win, Baby
00:55:40.771 : en:Death Renovates
01:03:49.885 : en:A Utilitarian Choice
01:06:11.610 : en:Who's Next
01:11:15.413 : en:Liberty or Death?
01:17:52.727 : en:Mckinley's Fireworks
01:19:56.434 : en:End of the Line
01:27:07.281 : en:End Credits
-
Скачать

Скачать торрент!

Как скачивать? · Что такое торрент? · Рейтинг и ограничения

Сайт не распространяет и не хранит электронные версии произведений, а лишь предоставляет доступ к создаваемому пользователями каталогу ссылок на торрент-файлы, которые содержат только списки хеш-сумм

[Профиль] [ЛС]
Показать сообщения:    
Ответить на тему

Текущее время: Сегодня 00:41

Часовой пояс: GMT + 4



Вы не можете начинать темы
Вы не можете отвечать на сообщения
Вы не можете редактировать свои сообщения
Вы не можете удалять свои сообщения
Вы не можете голосовать в опросах
Вы не можете прикреплять файлы к сообщениям
Вы не можете скачивать файлы