Тёмная долина / Das finstere Tal (Андреас Прохазка / Andreas Prochaska) [2014, Австрия, Германия, драма, вестерн, боевик, BDRip-AVC] MVO (Позитив) + Original Ger

Ответить на тему
 
Автор Сообщение

user ®

Стаж: 7 лет 7 месяцев

Сообщений: 20008

Пост Пост: #1 от 05-Янв-2015 23:00

[Цитировать]

Тёмная долина
Das finstere Tal

Страна: Австрия, Германия
Жанр: драма, вестерн, боевик
Год выпуска: 2014
Продолжительность: 01:54:44
Перевод: Профессиональный (многоголосый закадровый) Позитив
Cубтитры: нет
Оригинальная аудиодорожка: немецкий
Режиссер: Андреас Прохазка / Andreas Prochaska
В ролях: Сэм Райли, Тобиас Моретти, Хельмут Хеуслер, Мартин Лойтгеб, Йоханнес Николусси, Клеменс Шик, Флориан Брюкнер, Ганс-Михаэль Реберг, Эрвин Штайнхауэр, Франц Ксавер Брюкнер
Описание: Тайными путями одинокий всадник пробирается в маленький городок высоко в Альпах. Никто не знает, откуда прибыл незнакомец и чего он хочет. Но в одном жители городка уверены — они не хотят, чтобы он оставался здесь.

Сэмпл: http://sendfile.su/1069779
Качество видео: BDRip-AVC [Тёмная долина / Das finstere Tal (2014) 1080p BD-Remux.hdclub]
Формат видео: MKV
Видео: AVC, 1152x496 (2.35:1), 2739 kbps, 24,000 fps, 0.200 bpp
Аудио: AC3, 6ch, 48 kHz, 448 kbps, 16 bit
Аудио 2: AC3, 6ch, 48 kHz, 448 kbps, 16 bit
MediaInfo
Уникальный идентификатор : 233229506262543175759620895376038715688 (0xAF765E76F3CAAB19B5A9B6D8F3546128)
Полное имя : F:\Films\Dark\Das_finstere_kkv77.mkv
Формат : Matroska
Версия формата : Version 2
Размер файла : 2,91 Гбайт
Продолжительность : 1 ч. 54 м.
Общий поток : 3633 Кбит/сек
Дата кодирования : UTC 2015-01-05 05:24:52
Программа кодирования : mkvmerge v6.9.1 ('Blue Panther') 32bit built on Apr 18 2014 18:15:44
Библиотека кодирования : libebml v1.3.0 + libmatroska v1.4.1
Видео
Идентификатор : 1
Формат : AVC
Формат/Информация : Advanced Video Codec
Профиль формата : High@L4.1
Параметр CABAC формата : Да
Параметр ReFrames формата : 8 кадров
Идентификатор кодека : V_MPEG4/ISO/AVC
Продолжительность : 1 ч. 54 м.
Битрейт : 2739 Кбит/сек
Ширина : 1152 пикселя
Высота : 496 пикселей
Соотношение сторон : 2,35:1
Режим частоты кадров : Постоянный
Частота кадров : 24,000 кадра/сек
Цветовое пространство : YUV
Субдискретизация насыщенности : 4:2:0
Битовая глубина : 8 бит
Тип развёртки : Прогрессивная
Бит/(Пиксели*Кадры) : 0.200
Размер потока : 2,14 Гбайт (73%)
Библиотека кодирования : x264 core 138 r2358 9e941d1
Настройки программы : cabac=1 / ref=8 / deblock=1:-2:-1 / analyse=0x3:0x133 / me=umh / subme=9 / psy=1 / psy_rd=1.00:0.05 / mixed_ref=0 / me_range=32 / chroma_me=1 / trellis=2 / 8x8dct=1 / cqm=0 / deadzone=21,11 / fast_pskip=0 / chroma_qp_offset=-3 / threads=4 / lookahead_threads=1 / sliced_threads=0 / nr=0 / decimate=0 / interlaced=0 / bluray_compat=0 / constrained_intra=0 / bframes=12 / b_pyramid=2 / b_adapt=2 / b_bias=0 / direct=1 / weightb=1 / open_gop=0 / weightp=2 / keyint=240 / keyint_min=24 / scenecut=40 / intra_refresh=0 / rc=2pass / mbtree=0 / bitrate=2739 / ratetol=1.0 / qcomp=0.60 / qpmin=10 / qpmax=69 / qpstep=4 / cplxblur=20.0 / qblur=0.5 / ip_ratio=1.40 / pb_ratio=1.30 / aq=1:1.00
Язык : English
Default : Да
Forced : Нет
Аудио #1
Идентификатор : 2
Формат : AC-3
Формат/Информация : Audio Coding 3
Расширение режима : CM (complete main)
Параметр Endianness формата : Big
Идентификатор кодека : A_AC3
Продолжительность : 1 ч. 54 м.
Вид битрейта : Постоянный
Битрейт : 448 Кбит/сек
Каналы : 6 каналов
Расположение каналов : Front: L C R, Side: L R, LFE
Частота : 48,0 КГц
Битовая глубина : 16 бит
Метод сжатия : С потерями
Размер потока : 368 Мбайт (12%)
Заголовок : Многоголосый закадровый, Позитив
Язык : Russian
Default : Да
Forced : Нет
Аудио #2
Идентификатор : 3
Формат : AC-3
Формат/Информация : Audio Coding 3
Расширение режима : CM (complete main)
Параметр Endianness формата : Big
Идентификатор кодека : A_AC3
Продолжительность : 1 ч. 54 м.
Вид битрейта : Постоянный
Битрейт : 448 Кбит/сек
Каналы : 6 каналов
Расположение каналов : Front: L C R, Side: L R, LFE
Частота : 48,0 КГц
Битовая глубина : 16 бит
Метод сжатия : С потерями
Размер потока : 368 Мбайт (12%)
Заголовок : Немецкий
Язык : German
Default : Нет
Forced : Да
Меню
00:00:00.000 : en:00:00:00.000
00:09:40.250 : en:00:09:40.250
00:20:09.708 : en:00:20:09.708
00:28:27.000 : en:00:28:27.000
00:39:48.625 : en:00:39:48.625
00:49:15.000 : en:00:49:15.000
00:56:12.833 : en:00:56:12.833
01:03:55.541 : en:01:03:55.541
01:08:34.083 : en:01:08:34.083
01:21:32.958 : en:01:21:32.958
01:33:25.708 : en:01:33:25.708
01:49:57.333 : en:01:49:57.333
Скриншот c названием фильма Скриншоты Награды
Европейская киноакадемия, 2014 год:
Лучшие костюмы (победитель), Лучшая работа художника-постановщика (победитель), Приз жюри за лучшие костюмы (победитель), Приз жюри за лучшую работу художника-постановщика (победитель)
Возраст
18+ зрителям, достигшим 18 лет
Скачать

Скачать торрент!

Как скачивать? · Что такое торрент? · Рейтинг и ограничения

Сайт не распространяет и не хранит электронные версии произведений, а лишь предоставляет доступ к создаваемому пользователями каталогу ссылок на торрент-файлы, которые содержат только списки хеш-сумм

[Профиль] [ЛС]
Показать сообщения:    
Ответить на тему

Текущее время: Сегодня 16:33

Часовой пояс: GMT + 4



Вы не можете начинать темы
Вы не можете отвечать на сообщения
Вы не можете редактировать свои сообщения
Вы не можете удалять свои сообщения
Вы не можете голосовать в опросах
Вы не можете прикреплять файлы к сообщениям
Вы не можете скачивать файлы