Пляж Будущего / Praia do Futuro / Futuro Beach (Карим Айнуз / Karim Ainouz) [2014 г., драма, гей-тема, HDRip-AVC] VO (Kirill Ivanov) + Original (Por) + Subs (Rus, Eng)

Ответить на тему
 
Автор Сообщение

user ®

Стаж: 7 лет 7 месяцев

Сообщений: 20008

Пост Пост: #1 от 05-Янв-2015 23:00

[Цитировать]

Пляж будущего / Praia do Futuro
Год выпуска: 2014
Страна: Бразилия, Германия
Жанр: Драма
Продолжительность: 1:46:36
Перевод: Одноголосый (закадровый) (Kirill Ivanov по субтитрам Captain Vik)
Субтитры: Русские, английские (SRT)
Оригинальная аудиодорожка: Португальский, немецкий
Режиссер: Карим Айнуз / Karim Ainouz
В ролях: Вагнер Моура (Донато), Клеменс Шик (Конрад), Хесвита Барбоса (Айртон), Савио Игор Ремос, София Шарлотта Конрад, Сабина Тимотео, Yannik Burwiek, Фред Лима, Наташа Паулик, Эмили Кокс
Описание: Донато работает спасателем на прекрасном, но опасном бразильском бляже.
Однажды после неудачной попытки спасти утопающего, Донато встречает Конрада – друга утонувшего.
Волна страсти накатывает на парней как бушующий океан, но наступает момент когда Донато приходится принимать решение, отправится с Конрадом на другой конец света или остаться с близкими...


СЕМПЛ
Качество: HDRip-AVC
Формат: MKV
Видео: x264; 1152x490 (1:2,35); 24 fps; ~2020 kbps; 0,149 bit/pixel
Аудио 1: AC3, 48 kHz, 448 kbps, 5.1 (Front: L C R, Side: L R, LFE) | VO (Русский)
Аудио 2: AC3, 48 kHz, 448 kbps, 5.1 (Front: L C R, Side: L R, LFE) | Original (Por+Deu)
MediaInfo
Общее
Полное имя : Praia do Futuro (2014) K_I.mkv
Формат : Matroska
Версия формата : Version 4 / Version 2
Размер файла : 2,17 Гбайт
Продолжительность : 1 ч. 46 м.
Общий поток : 2920 Кбит/сек
Название фильма : Praia do Futuro (2014) K_I
Дата кодирования : UTC 2015-01-05 12:12:00
Программа кодирования : mkvmerge v7.5.0 ('Glass Culture') 64bit built on Jan 4 2015 16:48:44
Библиотека кодирования : libebml v1.3.1 + libmatroska v1.4.2
Видео
Идентификатор : 1
Формат : AVC
Формат/Информация : Advanced Video Codec
Профиль формата : High@L3.1
Параметр CABAC формата : Да
Параметр ReFrames формата : 7 кадров
Идентификатор кодека : V_MPEG4/ISO/AVC
Продолжительность : 1 ч. 46 м.
Битрейт : 2022 Кбит/сек
Ширина : 1152 пикселя
Высота : 490 пикселей
Соотношение сторон : 2,35:1
Режим частоты кадров : Постоянный
Частота кадров : 24,000 кадра/сек
Цветовое пространство : YUV
Субдискретизация насыщенности : 4:2:0
Битовая глубина : 8 бит
Тип развёртки : Прогрессивная
Бит/(Пиксели*Кадры) : 0.149
Размер потока : 1,46 Гбайт (67%)
Библиотека кодирования : x264 core 142 r2479 dd79a61
Настройки программы : cabac=1 / ref=7 / deblock=1:-2:-1 / analyse=0x3:0x133 / me=umh / subme=9 / psy=1 / psy_rd=1.00:0.20 / mixed_ref=1 / me_range=24 / chroma_me=1 / trellis=2 / 8x8dct=1 / cqm=0 / deadzone=21,11 / fast_pskip=1 / chroma_qp_offset=-3 / threads=6 / lookahead_threads=1 / sliced_threads=0 / nr=0 / decimate=1 / interlaced=0 / bluray_compat=0 / constrained_intra=0 / bframes=6 / b_pyramid=2 / b_adapt=2 / b_bias=0 / direct=3 / weightb=1 / open_gop=0 / weightp=2 / keyint=250 / keyint_min=23 / scenecut=40 / intra_refresh=0 / rc_lookahead=60 / rc=2pass / mbtree=1 / bitrate=2022 / ratetol=1.0 / qcomp=0.60 / qpmin=0 / qpmax=69 / qpstep=4 / cplxblur=20.0 / qblur=0.5 / ip_ratio=1.40 / aq=1:1.00
Default : Да
Forced : Нет
Аудио #1
Идентификатор : 2
Формат : AC-3
Формат/Информация : Audio Coding 3
Расширение режима : CM (complete main)
Параметр Endianness формата : Big
Идентификатор кодека : A_AC3
Продолжительность : 1 ч. 46 м.
Вид битрейта : Постоянный
Битрейт : 448 Кбит/сек
Каналы : 6 каналов
Расположение каналов : Front: L C R, Side: L R, LFE
Частота : 48,0 КГц
Битовая глубина : 16 бит
Метод сжатия : С потерями
Размер потока : 342 Мбайт (15%)
Язык : Russian
Default : Да
Forced : Нет
Аудио #2
Идентификатор : 3
Формат : AC-3
Формат/Информация : Audio Coding 3
Расширение режима : CM (complete main)
Параметр Endianness формата : Big
Идентификатор кодека : A_AC3
Продолжительность : 1 ч. 46 м.
Вид битрейта : Постоянный
Битрейт : 448 Кбит/сек
Каналы : 6 каналов
Расположение каналов : Front: L C R, Side: L R, LFE
Частота : 48,0 КГц
Битовая глубина : 16 бит
Метод сжатия : С потерями
Размер потока : 342 Мбайт (15%)
Язык : Portuguese
Default : Нет
Forced : Нет
Текст #1
Идентификатор : 4
Формат : UTF-8
Идентификатор кодека : S_TEXT/UTF8
Идентификатор кодека/Информация : UTF-8 Plain Text
Язык : Russian
Default : Нет
Forced : Нет
Текст #2
Идентификатор : 5
Формат : UTF-8
Идентификатор кодека : S_TEXT/UTF8
Идентификатор кодека/Информация : UTF-8 Plain Text
Язык : English
Default : Нет
Forced : Нет
Меню
00:00:00.000 : Chapter 1
00:05:33.041 : Chapter 2
00:21:00.041 : Chapter 3
00:33:56.000 : Chapter 4
00:47:54.041 : Chapter 5
01:02:31.000 : Chapter 6
01:22:04.000 : Chapter 7
01:31:58.000 : Chapter 8
01:40:45.000 : Chapter 9
Скриншот с названием Скриншоты
Скачать

Скачать торрент!

Как скачивать? · Что такое торрент? · Рейтинг и ограничения

Сайт не распространяет и не хранит электронные версии произведений, а лишь предоставляет доступ к создаваемому пользователями каталогу ссылок на торрент-файлы, которые содержат только списки хеш-сумм

[Профиль] [ЛС]
Показать сообщения:    
Ответить на тему

Текущее время: Сегодня 14:12

Часовой пояс: GMT + 4



Вы не можете начинать темы
Вы не можете отвечать на сообщения
Вы не можете редактировать свои сообщения
Вы не можете удалять свои сообщения
Вы не можете голосовать в опросах
Вы не можете прикреплять файлы к сообщениям
Вы не можете скачивать файлы