Фатальная Миссия / Fatal Mission (Стефан Йип /Stephen Yip) [1991, Гонконг, боевик, VHSRip] VO

Ответить на тему
 
Автор Сообщение

user ®

Стаж: 13 лет

Сообщений: 15071

Пост Пост: #1 от 05-Янв-2015 16:40

[Цитировать]

Фатальная Миссия / Fatal Mission
Страна: Гонконг
Жанр: боевик
Год выпуска: 1991
Продолжительность: 01:34:19
Перевод: Одноголосый закадровый
Cубтитры:китайские,английские(неотключаемые)
Режиссер: Стефан Йип /Stephen Yip
В ролях: Дерек Йи,Сибелль Ху,Джозеф Ченг,Фрэнки Чан,Саския Ван Рийсвийк
Описание: Женщина и ребенок Петра пиротехника случайно жертвой банды коррумпированных копов во главе с безжалостным капитаном Шейла жаждущий наркотиков. Когда Питеру кажется, что полицейское расследование под руководством инспектора Сьюзен не прогрессирует достаточно быстро, начинает расследование по своему усмотрению ...
Сэмпл: http://multi-up.com/847356
Качество видео: VHSRip
Формат видео: AVI
Видео: DivX 6 352x240 29.97fps 998kbps
Аудио: MPEG Audio Layer 3 44100Hz stereo 128kbps
MediaInfo
General
Complete name : D:\µTorrent\Фатальная миссия_91.avi
Format : AVI
Format/Info : Audio Video Interleave
File size : 858 MiB
Duration : 1h 34mn
Overall bit rate : 1 272 Kbps
Writing application : VirtualDubMod 1.5.10.2 (build 2540/release)
Writing library : VirtualDubMod build 2540/release
Video
ID : 0
Format : MPEG-4 Visual
Format profile : Advanced Simple@L1
Format settings, BVOP : 2
Format settings, QPel : No
Format settings, GMC : No warppoints
Format settings, Matrix : Default (H.263)
Codec ID : divx
Codec ID/Info : Mainly used by Google
Codec ID/Hint : DivX
Duration : 1h 34mn
Bit rate : 999 Kbps
Width : 352 pixels
Height : 240 pixels
Display aspect ratio : 4:3
Frame rate : 29.970 fps
Standard : NTSC
Color space : YUV
Chroma subsampling : 4:2:0
Bit depth : 8 bits
Scan type : Progressive
Compression mode : Lossy
Bits/(Pixel*Frame) : 0.394
Stream size : 674 MiB (79%)
Writing library : Lavc52.37.0
Audio
ID : 1
Format : MPEG Audio
Format version : Version 1
Format profile : Layer 3
Mode : Joint stereo
Mode extension : MS Stereo
Codec ID : 55
Codec ID/Hint : MP3
Duration : 1h 34mn
Bit rate mode : Constant
Bit rate : 128 Kbps
Channel(s) : 2 channels
Sampling rate : 44.1 KHz
Compression mode : Lossy
Stream size : 86.4 MiB (10%)
Alignment : Split accross interleaves
Interleave, duration : 33 ms (1.00 video frame)
Interleave, preload duration : 500 ms
Writing library : LAME3.98
Скриншот c названием фильма Скриншоты
Скачать

Скачать торрент! Фатальная Миссия / Fatal Mission (Стефан Йип /Stephen Yip) [1991, Гонконг, боевик, VHSRip] VO

Как скачивать? · Что такое торрент? · Рейтинг и ограничения

Сайт не распространяет и не хранит электронные версии произведений, а лишь предоставляет доступ к создаваемому пользователями каталогу ссылок на торрент-файлы, которые содержат только списки хеш-сумм

[Профиль] [ЛС]
Показать сообщения:    
Ответить на тему

Текущее время: Сегодня 17:23

Часовой пояс: GMT + 4



Вы не можете начинать темы
Вы не можете отвечать на сообщения
Вы не можете редактировать свои сообщения
Вы не можете удалять свои сообщения
Вы не можете голосовать в опросах
Вы не можете прикреплять файлы к сообщениям
Вы не можете скачивать файлы