Драконы Нью-Йорка / Revenge of the Green Dragons (Вэй Кеунг Лау / Wai-Keung Lau, Эндрю Лу / Andrew Loo) [2014, США, Гонконг, боевик, драма, криминал, HDRip] MVO (Студия Пиратского дубляжа)

Ответить на тему
 
Автор Сообщение

user ®

Стаж: 7 лет 7 месяцев

Сообщений: 20008

Пост Пост: #1 от 05-Янв-2015 16:40

[Цитировать]

Драконы Нью-Йорка / Revenge of the Green Dragons
Страна: США, Гонконг
Жанр: боевик, драма, криминал
Год выпуска: 2014
Продолжительность: 01:34:50
Перевод: Любительский (многоголосый закадровый) Студия Пиратского дубляжа
Cубтитры: нет
Режиссер: Вэй Кеунг Лау / Wai-Keung Lau, Эндрю Лу / Andrew Loo
В ролях: Джастин Чон, Кевин Ву, Гарри Шам мл., Рэй Лиотта, Джин Онг, Сюя Чанг, Карл Ли, Леонард Ву, Евгения Йуан, Селия Ау
Описание: История двух братьев-эмигрантов Сонни и Стивена, отправившихся в конце 80-х годов в Нью-Йорк за американской мечтой.
В поисках лучшей жизни они влились в банду Чайна-тауна «Зеленые драконы». Делая успехи на новом поприще, Сонни опрометчиво влюбляется «не в ту» девушку, и родные братья становятся злейшими врагами. Сонни начинает мстить своей банде, которая взрастила его и сделала тем, кем он является. Американская мечта братьев сбывается, но действительно ли они хотели этого?
Сэмпл: http://multi-up.com/1024605
Качество видео: HDRip
Формат видео: AVI
Видео: 688x288 (2.39:1), 23.976 fps, XviD build 73 ~958 kbps avg, 0.20 bit/pixel
Аудио: 48 kHz, MPEG Layer 3, 2 ch, ~128.00 kbps avg
MediaInfo
Формат : AVI
Формат/Информация : Audio Video Interleave
Размер файла : 743 Мбайт
Продолжительность : 1 ч. 34 м.
Общий поток : 1096 Кбит/сек
Программа кодирования : VirtualDubMod 1.5.10.3 | www.virtualdub-fr.org || (build 2550/release)
Библиотека кодирования : VirtualDubMod build 2550/release
Видео
Идентификатор : 0
Формат : MPEG-4 Visual
Профиль формата : Advanced Simple@L5
Параметр BVOP формата : 1
Параметр QPel формата : Нет
Параметр GMC формата : Без точки перехода
Параметр матрицы формата : Выборочная
Идентификатор кодека : XVID
Идентификатор кодека/Подсказка : XviD
Продолжительность : 1 ч. 34 м.
Битрейт : 959 Кбит/сек
Ширина : 688 пикселей
Высота : 288 пикселей
Соотношение сторон : 2,40:1
Частота кадров : 23,976 кадра/сек
Цветовое пространство : YUV
Субдискретизация насыщенности : 4:2:0
Битовая глубина : 8 бит
Тип развёртки : Прогрессивная
Метод сжатия : С потерями
Бит/(Пиксели*Кадры) : 0.202
Размер потока : 650 Мбайт (87%)
Библиотека кодирования : XviD 73
Аудио
Идентификатор : 1
Формат : MPEG Audio
Версия формата : Version 1
Профиль формата : Layer 3
Идентификатор кодека : 55
Идентификатор кодека/Подсказка : MP3
Продолжительность : 1 ч. 34 м.
Вид битрейта : Постоянный
Битрейт : 128 Кбит/сек
Каналы : 2 канала
Частота : 48,0 КГц
Метод сжатия : С потерями
Размер потока : 86,8 Мбайт (12%)
Выравнивание : Соединение по промежуткам
Продолжительность промежутка : 42 мс. (1,00 видеокадр)
Время предзагрузки промежутка : 504 мс.
Библиотека кодирования : LAME3.99r
Настройки программы : -m s -V 4 -q 2 -lowpass 17 -b 128
Скриншоты
Скачать

Скачать торрент!

Как скачивать? · Что такое торрент? · Рейтинг и ограничения

Сайт не распространяет и не хранит электронные версии произведений, а лишь предоставляет доступ к создаваемому пользователями каталогу ссылок на торрент-файлы, которые содержат только списки хеш-сумм

[Профиль] [ЛС]
Показать сообщения:    
Ответить на тему

Текущее время: Сегодня 19:40

Часовой пояс: GMT + 4



Вы не можете начинать темы
Вы не можете отвечать на сообщения
Вы не можете редактировать свои сообщения
Вы не можете удалять свои сообщения
Вы не можете голосовать в опросах
Вы не можете прикреплять файлы к сообщениям
Вы не можете скачивать файлы