Ладонь Будды / Buddha\'s palm / Ru lai shen zhang (Тэйлор Вон / Taylor Wong) [1982, Китай, Гонконг, боевик, кунг-фу, DVDRip] VO

Ответить на тему
 
Автор Сообщение

user ®

Стаж: 13 лет

Сообщений: 15071

Пост Пост: #1 от 04-Янв-2015 23:30

[Цитировать]

Ладонь Будды / Buddha's palm / Ru lai shen zhang- -Страна: Китай, Гонконг
Жанр: боевик, кунг-фу
Год выпуска: 1982
Продолжительность: 01:33:14-Перевод: Одноголосый закадровый-Cубтитры: нет
Оригинальная аудиодорожка: нет
Режиссер: Тэйлор Вон / Taylor Wong
В ролях: Тун-Шин Йи, Он-он Ю, Кара Хуи, Алекс Мэн, Цзин-Цзин Юнг, Лье Ло, Куан-чунг Ку, Ланг Тиен Хсиа, Сзу-Чиа Чен, Сьюзэн Йин-Йин Сиу...
Описание: Простой паренек Лонг, чье лицо обезображено жуткими шрамами, выходит из себя, когда отец его возлюбленной отдает ее другому, но в неравной схватке с ее женихом проигрывает и падает с обрыва. Однако его спасает летающий дракон Даменг и приносит парня к своему хозяину, великому слепому воину, который берет юношу в свои ученики.
Релиз от -
Сэмпл: http://multi-up.com/1024431
Качество видео: DVDRip
Формат видео: AVI
Видео: MPEG-4 Visual at 2044 Кбит/сек; 720 x 304 (2.368) at 25.000 fps
Аудио: AC-3 at 192 Кбит/сек; 2 канала, 48,0 КГц
Автор -
MediaInfo
Общее
Полное имя : D:\Фильмы\Азиатские\Ладонь Будды\Buddha's palm.1982.DVDRip.XviD.1400MB. rip by [Assassin's Creed].avi
Формат : AVI
Формат/Информация : Audio Video Interleave
Размер файла : 1,46 Гбайт
Продолжительность : 1 ч. 33 м.
Общий поток : 2246 Кбит/сек
Программа кодирования : VirtualDubMod 1.5.10.3 | www.virtualdub-fr.org || (build 2550/release)
Библиотека кодирования : VirtualDubMod build 2550/release
Видео
Идентификатор : 0
Формат : MPEG-4 Visual
Профиль формата : Advanced Simple@L5
Параметр BVOP формата : 1
Параметр QPel формата : Нет
Параметр GMC формата : Без точки перехода
Параметр матрицы формата : Default (MPEG)
Идентификатор кодека : XVID
Идентификатор кодека/Подсказка : XviD
Продолжительность : 1 ч. 33 м.
Битрейт : 2044 Кбит/сек
Ширина : 720 пикселей
Высота : 304 пикселя
Соотношение сторон : 2,35:1
Частота кадров : 25,000 кадров/сек
Цветовое пространство : YUV
Субдискретизация насыщенности : 4:2:0
Битовая глубина : 8 бит
Тип развёртки : Прогрессивная
Метод сжатия : С потерями
Бит/(Пиксели*Кадры) : 0.374
Размер потока : 1,33 Гбайт (91%)
Библиотека кодирования : XviD 1.2.1 (UTC 2008-12-04)
Аудио
Идентификатор : 1
Формат : AC-3
Формат/Информация : Audio Coding 3
Расширение режима : CM (complete main)
Параметр Endianness формата : Big
Идентификатор кодека : 2000
Продолжительность : 1 ч. 33 м.
Вид битрейта : Постоянный
Битрейт : 192 Кбит/сек
Каналы : 2 канала
Расположение каналов : Front: L R
Частота : 48,0 КГц
Битовая глубина : 16 бит
Метод сжатия : С потерями
Размер потока : 128 Мбайт (9%)
Выравнивание : Разделение по промежуткам
Продолжительность промежутка : 40 мс. (1,00 видеокадр)
Время предзагрузки промежутка : 500 мс.
Скриншот c названием фильма Скриншоты
Скачать

Скачать торрент! Ладонь Будды / Buddha\'s palm / Ru lai shen zhang (Тэйлор Вон / Taylor Wong) [1982, Китай, Гонконг, боевик, кунг-фу, DVDRip] VO

Как скачивать? · Что такое торрент? · Рейтинг и ограничения

Сайт не распространяет и не хранит электронные версии произведений, а лишь предоставляет доступ к создаваемому пользователями каталогу ссылок на торрент-файлы, которые содержат только списки хеш-сумм

[Профиль] [ЛС]
Показать сообщения:    
Ответить на тему

Текущее время: Сегодня 11:17

Часовой пояс: GMT + 4



Вы не можете начинать темы
Вы не можете отвечать на сообщения
Вы не можете редактировать свои сообщения
Вы не можете удалять свои сообщения
Вы не можете голосовать в опросах
Вы не можете прикреплять файлы к сообщениям
Вы не можете скачивать файлы