Меч зверя / Самураи - золотоискатели / Sword of the beast / Kedamono no ken (Хидео Гося / Hideo Gosha) [1965, Япония, боевик, драма, DVDRip] MVO

Ответить на тему
 
Автор Сообщение

user ®

Стаж: 13 лет

Сообщений: 15071

Пост Пост: #1 от 04-Янв-2015 23:30

[Цитировать]

Меч зверя / Самураи - золотоискатели / Sword of the beast / Kedamono no ken- -Страна: Япония
Жанр: боевик, драма
Год выпуска: 1965
Продолжительность: 01:25:22-Перевод: Профессиональный (многоголосый закадровый)-Cубтитры: нет
Оригинальная аудиодорожка: нет
Режиссер: Хидео Гося / Hideo Gosha
В ролях: Микидзиро Хира, Гоу Като, Сима Ивасита, Тошие Кимура, Кантаро Суга, Йоко Михара, Куниэ Танака, Эйдзиро Тоно, Шигеру Амачи, Хайме Араки
Описание: Глава клана Какегава не хочет реформ, поэтому его приходиться убрать. Убивает его молодой самурай Генносукэ, но вместо лучшей жизни ему приходиться пуститься в бега. Плюнув на самурайский кодекс, с криком «К черту имя и честь! Я побегу и не остановлюсь!» Генносукэ отправляется на волю, в пампасы. В погоню за ним посылают дочь главы клана, ее жениха и еще нескольких самураев.
Релиз от -
Сэмпл: http://multi-up.com/1024545
Качество видео: DVDRip
Формат видео: AVI
Видео: MPEG-4 Visual at 2247 Кбит/сек; 704 x 304 (2.316) at 23.976 fps
Аудио: AC-3 at 192 Кбит/сек; 2 канала, 48,0 КГц
Автор -
MediaInfo
Общее
Полное имя : D:\Фильмы\Азиатские\Самураи - золотоискатели\Sword of The Beast.1965.DVDRip.XviD.1400MB. rip by [Assassin's Creed].avi
Формат : AVI
Формат/Информация : Audio Video Interleave
Размер файла : 1,46 Гбайт
Продолжительность : 1 ч. 25 м.
Общий поток : 2448 Кбит/сек
Программа кодирования : VirtualDubMod 1.5.10.3 | www.virtualdub-fr.org || (build 2550/release)
Библиотека кодирования : VirtualDubMod build 2550/release
Видео
Идентификатор : 0
Формат : MPEG-4 Visual
Профиль формата : Advanced Simple@L5
Параметр BVOP формата : 1
Параметр QPel формата : Нет
Параметр GMC формата : Без точки перехода
Параметр матрицы формата : Default (MPEG)
Идентификатор кодека : XVID
Идентификатор кодека/Подсказка : XviD
Продолжительность : 1 ч. 25 м.
Битрейт : 2247 Кбит/сек
Ширина : 704 пикселя
Высота : 304 пикселя
Соотношение сторон : 2,35:1
Частота кадров : 23,976 кадра/сек
Цветовое пространство : YUV
Субдискретизация насыщенности : 4:2:0
Битовая глубина : 8 бит
Тип развёртки : Прогрессивная
Метод сжатия : С потерями
Бит/(Пиксели*Кадры) : 0.438
Размер потока : 1,34 Гбайт (92%)
Библиотека кодирования : XviD 1.2.1 (UTC 2008-12-04)
Аудио
Идентификатор : 1
Формат : AC-3
Формат/Информация : Audio Coding 3
Расширение режима : CM (complete main)
Параметр Endianness формата : Big
Идентификатор кодека : 2000
Продолжительность : 1 ч. 25 м.
Вид битрейта : Постоянный
Битрейт : 192 Кбит/сек
Каналы : 2 канала
Расположение каналов : Front: L R
Частота : 48,0 КГц
Битовая глубина : 16 бит
Метод сжатия : С потерями
Размер потока : 117 Мбайт (8%)
Выравнивание : Разделение по промежуткам
Продолжительность промежутка : 42 мс. (1,00 видеокадр)
Время предзагрузки промежутка : 500 мс.
Скриншот c названием фильма Скриншоты
Скачать

Скачать торрент! Меч зверя / Самураи - золотоискатели / Sword of the beast / Kedamono no ken (Хидео Гося / Hideo Gosha) [1965, Япония, боевик, драма, DVDRip] MVO

Как скачивать? · Что такое торрент? · Рейтинг и ограничения

Сайт не распространяет и не хранит электронные версии произведений, а лишь предоставляет доступ к создаваемому пользователями каталогу ссылок на торрент-файлы, которые содержат только списки хеш-сумм

[Профиль] [ЛС]
Показать сообщения:    
Ответить на тему

Текущее время: Сегодня 21:51

Часовой пояс: GMT + 4



Вы не можете начинать темы
Вы не можете отвечать на сообщения
Вы не можете редактировать свои сообщения
Вы не можете удалять свои сообщения
Вы не можете голосовать в опросах
Вы не можете прикреплять файлы к сообщениям
Вы не можете скачивать файлы