Дело о смерти Анкура Ароры / Ankur Arora Murder Case (Сохаил Татари / Sohail Tatari) [2013, Индия, Драма, триллер, DVDRip] VO (Юлия Семыкина) + Sub Rus

Ответить на тему
 
Автор Сообщение

user ®

Стаж: 12 лет

Сообщений: 15092

Пост Пост: #1 от 04-Янв-2015 23:30

[Цитировать]

Дело о смерти Анкура Ароры / Ankur Arora Murder CaseWhen hope kills...Фильм основан на реальных событиях--
Страна: Индия
Жанр: Драма, триллер
Год выпуска: 2013
Продолжительность: 02:08:26
Перевод: Одноголосый закадровый
Перевод субтитров: Анастасия (Мила)
Озвучка: Юлия Семыкина
Cубтитры: Есть (на песни)
Оригинальная аудиодорожка: нет--Режиссер: Сохаил Татари / Sohail Tatari--В ролях: Кей Кей Менон, Тиска Чопра, Арджун Матхур, Паоли Дам, Вишакха Сингх, маниш Чаудхари, Висшеш Тивари, Херш Чхая--Описание: Ромеш - молодой врач-стажер. Он преклоняется перед харизмой и трудолюбием хирурга Астаны и считает его образцом для подражания. Однако после того, как из-за медицинской халатности доктора Астаны, умирает восьмилетний мальчик по имени Анкур, Ромеш понимает, что хороший хирург не обязательно хороший человек. Так начинается борьба главного героя за справедливость против своего наставника... (с) Анастасия (bollywoodtime)--Доп. информация:
Фильм основан на реальных событиях, которые произошли в одном из госпиталей Дели. Во время операции из за медицинской халатности умер восьмилетний мальчик.--Большое спасибо:
Анастасия (Мила) (bollywoodtime), за перевод субтитров и за описание фильма
larisa_k, за перевод песен и за неоценимую помощь в создании данного релиза
Юлия Семыкина, за озвучку фильма и за редактирования субтитров песен-Заказ озвучки, рип и сведение звука: pca1962--
Сэмпл: http://multi-up.com/1024397
Качество видео: DVDRip
Формат видео: AVI
Видео: XviD, 720x304, 23.976 fps, 1429 kbps
Аудио: AC3, 48 kHz, 2.0 (stereo), 192 kbps (русский)
Формат субтитров: softsub (SRT)-
-
MediaInfo
General
Complete name : Delo.O.Smerti.Ankura.Arory.2013.DVDRip.XviD.pca1962.avi
Format : AVI
Format/Info : Audio Video Interleave
File size : 1.46 GiB
Duration : 2h 8mn
Overall bit rate : 1 631 Kbps
Movie name : Delo.O.Smerti.Ankura.Arory.2013
Director : pca1962
Genre : Drama
Writing application : VirtualDubMod 1.5.10.2 (build 2540/release)
Original source form/Name : Movie
Copyright : pca1962
Comment : mixing audio rus-pca1962
Video
ID : 0
Format : MPEG-4 Visual
Format profile : Advanced Simple@L5
Format settings, BVOP : 1
Format settings, QPel : No
Format settings, GMC : No warppoints
Format settings, Matrix : Default (H.263)
Codec ID : XVID
Codec ID/Hint : XviD
Duration : 2h 8mn
Bit rate : 1429 Kbps
Width : 720 pixels
Height : 304 pixels
Display aspect ratio : 2.35:1
Frame rate : 23.976 fps
Color space : YUV
Chroma subsampling : 4:2:0
Bit depth : 8 bits
Scan type : Progressive
Compression mode : Lossy
Bits/(Pixel*Frame) : 0.272
Stream size : 1.28 GiB (88%)
Writing library : XviD 73
Audio
ID : 1
Format : AC-3
Format/Info : Audio Coding 3
Mode extension : CM (complete main)
Format settings, Endianness : Big
Codec ID : 2000
Duration : 2h 8mn
Bit rate mode : Constant
Bit rate : 192 Kbps
Channel count : 2 channels
Channel positions : Front: L R
Sampling rate : 48.0 KHz
Bit depth : 16 bits
Compression mode : Lossy
Stream size : 176 MiB (12%)
Alignment : Split accross interleaves
Interleave, duration : 42 ms (1.00 video frame)
Interleave, preload duration : 500 ms
Обложки Скриншот c названием фильма Скриншоты
Скачать

Скачать торрент! Дело о смерти Анкура Ароры / Ankur Arora Murder Case (Сохаил Татари / Sohail Tatari) [2013, Индия, Драма, триллер, DVDRip] VO (Юлия Семыкина) + Sub Rus

Как скачивать? · Что такое торрент? · Рейтинг и ограничения

Сайт не распространяет и не хранит электронные версии произведений, а лишь предоставляет доступ к создаваемому пользователями каталогу ссылок на торрент-файлы, которые содержат только списки хеш-сумм

[Профиль] [ЛС]
Показать сообщения:    
Ответить на тему

Текущее время: Сегодня 11:20

Часовой пояс: GMT + 4



Вы не можете начинать темы
Вы не можете отвечать на сообщения
Вы не можете редактировать свои сообщения
Вы не можете удалять свои сообщения
Вы не можете голосовать в опросах
Вы не можете прикреплять файлы к сообщениям
Вы не можете скачивать файлы