Босс в гостиной / Un boss in salotto (Лука Миньеро / Luca Miniero) [2014, Италия, Комедия, HDRip] VO (Игорь Головин)

Ответить на тему
 
Автор Сообщение

user ®

Стаж: 7 лет 7 месяцев

Сообщений: 20008

Пост Пост: #1 от 04-Янв-2015 23:30

[Цитировать]

Босс в гостиной / Un boss in salotto
Страна: Италия
Жанр: Комедия
Год выпуска: 2014
Продолжительность: 01:42:05
Перевод: Одноголосый закадровый Игорь Головин
Cубтитры: нет
Режиссер: Лука Миньеро / Luca Miniero
В ролях: Паола Кортеллези, Рокко Папалео, Лука Арджентеро, Анджела Финоккьяро, Але, Франц, Массимо Де Лоренцо
Описание: Кристина успешный врач-трансплантолог, живущий в небольшом городке на севере Италии. Ей удалось построить идеальную семью с мужем Микеле и двумя прекрасными детьми. Однажды после звонка в полицейский участок Кристина узнаёт, что её брат замешан в крупном процессе над мафией. Брат, которого, она не видела 15 лет, просит провести некоторое время под домашним арестом в её доме. Через силу Кристина даёт своё согласие. Все планы и привычная рутина семьи пойдут кувырком после появления в ней не приученного к хорошим манерам всего в татуировках и золотых цепях дядюшки Чиро.
Сэмпл: http://multi-up.com/1023677
Качество видео: HDRip
Формат видео: AVI
Видео: 720x304 (2.37:1), 23.976 fps, XviD build 62 ~1802 kbps avg, 0.34 bit/pixel
Аудио: 48 kHz, AC3 Dolby Digital, 2/0 (L,R) ch, ~192 kbps
MediaInfo
Формат : AVI
Формат/Информация : Audio Video Interleave
Размер файла : 1,43 Гбайт
Продолжительность : 1 ч. 42 м.
Общий поток : 2004 Кбит/сек
Программа кодирования : VirtualDubMod 1.5.10.3 | www.virtualdub-fr.org || (build 2550/release)
Библиотека кодирования : VirtualDubMod build 2550/release
Видео
Идентификатор : 0
Формат : MPEG-4 Visual
Профиль формата : Advanced Simple@L5
Параметр BVOP формата : Нет
Параметр QPel формата : Нет
Параметр GMC формата : Без точки перехода
Параметр матрицы формата : Default (MPEG)
Идентификатор кодека : XVID
Идентификатор кодека/Подсказка : XviD
Продолжительность : 1 ч. 42 м.
Битрейт : 1803 Кбит/сек
Ширина : 720 пикселей
Высота : 304 пикселя
Соотношение сторон : 2,35:1
Частота кадров : 23,976 кадра/сек
Цветовое пространство : YUV
Субдискретизация насыщенности : 4:2:0
Битовая глубина : 8 бит
Тип развёртки : Прогрессивная
Метод сжатия : С потерями
Бит/(Пиксели*Кадры) : 0.344
Размер потока : 1,29 Гбайт (90%)
Библиотека кодирования : XviD 62
Аудио
Идентификатор : 1
Формат : AC-3
Формат/Информация : Audio Coding 3
Расширение режима : CM (complete main)
Параметр Endianness формата : Big
Идентификатор кодека : 2000
Продолжительность : 1 ч. 42 м.
Вид битрейта : Постоянный
Битрейт : 192 Кбит/сек
Каналы : 2 канала
Расположение каналов : Front: L R
Частота : 48,0 КГц
Битовая глубина : 16 бит
Метод сжатия : С потерями
Размер потока : 140 Мбайт (10%)
Выравнивание : Разделение по промежуткам
Продолжительность промежутка : 42 мс. (1,00 видеокадр)
Время предзагрузки промежутка : 500 мс.
Скриншоты
Скачать

Скачать торрент!

Как скачивать? · Что такое торрент? · Рейтинг и ограничения

Сайт не распространяет и не хранит электронные версии произведений, а лишь предоставляет доступ к создаваемому пользователями каталогу ссылок на торрент-файлы, которые содержат только списки хеш-сумм

[Профиль] [ЛС]
Показать сообщения:    
Ответить на тему

Текущее время: Сегодня 16:13

Часовой пояс: GMT + 4



Вы не можете начинать темы
Вы не можете отвечать на сообщения
Вы не можете редактировать свои сообщения
Вы не можете удалять свои сообщения
Вы не можете голосовать в опросах
Вы не можете прикреплять файлы к сообщениям
Вы не можете скачивать файлы