Драконы Нью-Йорка / Revenge of the Green Dragons (Вэй Кеунг Лау / Wai-Keung Lau, Эндрю Лу / Andrew Loo) [2014, США, Гонконг, боевик, драма, криминал, HDRip] MVO (Студия Пиратского дубляжа) + Original Eng

Ответить на тему
 
Автор Сообщение

user ®

Стаж: 8 лет 1 месяц

Сообщений: 20008

Пост Пост: #1 от 04-Янв-2015 23:30

[Цитировать]

--Драконы Нью-Йорка / Revenge of the Green Dragons--«Бойся своей мечты»- Страна: США, Гонконг
Жанр: боевик, драма, криминал
Год выпуска: 2014
Продолжительность: 01:34:50-Перевод: Любительский (многоголосый закадровый) Студия Пиратского дубляжа
Cубтитры: нет
Оригинальная аудиодорожка: английский-Режиссер: Вэй Кеунг Лау / Wai-Keung Lau, Эндрю Лу / Andrew Loo-В ролях: Джастин Чон, Кевин Ву, Гарри Шам мл., Рэй Лиотта, Джин Онг, Сюя Чанг, Карл Ли, Леонард Ву, Евгения Йуан, Селия Ау
Описание: История двух братьев-эмигрантов Сонни и Стивена, отправившихся в конце 80-х годов в Нью-Йорк за американской мечтой.
В поисках лучшей жизни они влились в банду Чайна-тауна «Зеленые драконы». Делая успехи на новом поприще, Сонни опрометчиво влюбляется «не в ту» девушку, и родные братья становятся злейшими врагами. Сонни начинает мстить своей банде, которая взрастила его и сделала тем, кем он является. Американская мечта братьев сбывается, но действительно ли они хотели этого?

-|Сэмпл|IMDB|КиноПоиск|

Качество видео: HDRip
Формат видео: AVI-Видео: 720x304 (2.37:1), 23.976 fps, XviD build 50 ~1355 kbps avg, 0.26 bit/pixel
Аудио: Russian: 48 kHz, AC3 Dolby Digital, 3/2 (L,C,R,l,r) + LFE ch, ~384 kbps
Аудио 2: English: 48 kHz, AC3 Dolby Digital, 3/2 (L,C,R,l,r) + LFE ch, ~448 kbps

MediaInfo
Общее
Полное имя : F:\BD torrent\mytorrentsup\Drakony.New.Yorka.2014.P.HDRip.1.46GB.avi
Формат : AVI
Формат/Информация : Audio Video Interleave
Размер файла : 1,46 Гбайт
Продолжительность : 1 ч. 34 м.
Общий поток : 2203 Кбит/сек
Программа кодирования : VirtualDubModRus 1.5.10.2 (build 2542/release)
Библиотека кодирования : VirtualDubMod build 2542/release
Видео
Идентификатор : 0
Формат : MPEG-4 Visual
Профиль формата : Advanced Simple@L5
Параметр BVOP формата : 3
Параметр QPel формата : Нет
Параметр GMC формата : Без точки перехода
Параметр матрицы формата : Выборочная
Идентификатор кодека : XVID
Идентификатор кодека/Подсказка : XviD
Продолжительность : 1 ч. 34 м.
Битрейт : 1357 Кбит/сек
Ширина : 720 пикселей
Высота : 304 пикселя
Соотношение сторон : 2,35:1
Частота кадров : 23,976 кадра/сек
Цветовое пространство : YUV
Субдискретизация насыщенности : 4:2:0
Битовая глубина : 8 бит
Тип развёртки : Прогрессивная
Метод сжатия : С потерями
Бит/(Пиксели*Кадры) : 0.259
Размер потока : 920 Мбайт (62%)
Библиотека кодирования : XviD 1.2.1 (UTC 2008-12-04)
Аудио #1
Идентификатор : 1
Формат : AC-3
Формат/Информация : Audio Coding 3
Расширение режима : CM (complete main)
Параметр Endianness формата : Big
Идентификатор кодека : 2000
Продолжительность : 1 ч. 34 м.
Вид битрейта : Постоянный
Битрейт : 384 Кбит/сек
Каналы : 6 каналов
Расположение каналов : Front: L C R, Side: L R, LFE
Частота : 48,0 КГц
Битовая глубина : 16 бит
Метод сжатия : С потерями
Размер потока : 260 Мбайт (17%)
Выравнивание : Разделение по промежуткам
Продолжительность промежутка : 42 мс. (1,00 видеокадр)
Время предзагрузки промежутка : 500 мс.
Аудио #2
Идентификатор : 2
Формат : AC-3
Формат/Информация : Audio Coding 3
Расширение режима : CM (complete main)
Параметр Endianness формата : Big
Идентификатор кодека : 2000
Продолжительность : 1 ч. 34 м.
Вид битрейта : Постоянный
Битрейт : 448 Кбит/сек
Каналы : 6 каналов
Расположение каналов : Front: L C R, Side: L R, LFE
Частота : 48,0 КГц
Битовая глубина : 16 бит
Метод сжатия : С потерями
Размер потока : 304 Мбайт (20%)
Выравнивание : Разделение по промежуткам
Продолжительность промежутка : 42 мс. (1,00 видеокадр)
Время предзагрузки промежутка : 500 мс.
Скриншот c названием фильма Скриншоты
Скачать

Скачать торрент!

Как скачивать? · Что такое торрент? · Рейтинг и ограничения

Сайт не распространяет и не хранит электронные версии произведений, а лишь предоставляет доступ к создаваемому пользователями каталогу ссылок на торрент-файлы, которые содержат только списки хеш-сумм

[Профиль] [ЛС]
Показать сообщения:    
Ответить на тему

Текущее время: Сегодня 06:29

Часовой пояс: GMT + 4



Вы не можете начинать темы
Вы не можете отвечать на сообщения
Вы не можете редактировать свои сообщения
Вы не можете удалять свои сообщения
Вы не можете голосовать в опросах
Вы не можете прикреплять файлы к сообщениям
Вы не можете скачивать файлы