Маленькая история большого пирата (Варя Яковлева) [2013, мультфильм, WEBRip-AVC]

Ответить на тему
 
Автор Сообщение

user ®

Стаж: 7 лет 7 месяцев

Сообщений: 20008

Пост Пост: #1 от 04-Янв-2015 15:40

[Цитировать]

Маленькая история большого пирата
Страна: Россия
Жанр: мультфильм
Продолжительность: 00:08:18
Год выпуска: 2013
Режиссёр: Варя Яковлева
Описание: Пиратствующие викинги попадают на остров, где в глубоком подземелье спрятаны золотые сокровища. Этот клад оказывается ловушкой - золото заколдовано. Лишь чистая душа сына их одноглазого предводителя способна победить чары.
Качество: WEBRip-AVC
Формат: MP4
Видео: 2551 kbps, 1280х720 (16:9), 25.000 fps, AVC (High@L3.1)
Аудио: 192 kbps, 44.1 kHz, 2 channels, AAC (LC)
Субтитры: отсутствуют
Подробные технические данные
GeneralComplete name : Маленькая история большого пирата (2013).mp4Format : MPEG-4Format profile : Base Media / Version 2Codec ID : mp42File size : 163 MiBDuration : 8mn 18sOverall bit rate mode : VariableOverall bit rate : 2 745 KbpsEncoded date : UTC 2013-11-13 20:07:17Tagged date : UTC 2013-11-13 20:07:17gsst : 0gstd : 498066gssd : B4A7DDAE6MH1418656109876931gshh : r6---sn-4g57kuer.googlevideo.com
VideoID : 1Format : AVCFormat/Info : Advanced Video CodecFormat profile : High@L3.1Format settings, CABAC : YesFormat settings, ReFrames : 1 frameCodec ID : avc1Codec ID/Info : Advanced Video CodingDuration : 8mn 18sBit rate : 2 551 KbpsMaximum bit rate : 8 218 KbpsWidth : 1 280 pixelsHeight : 720 pixelsDisplay aspect ratio : 16:9Frame rate mode : ConstantFrame rate : 25.000 fpsColor space : YUVChroma subsampling : 4:2:0Bit depth : 8 bitsScan type : ProgressiveBits/(Pixel*Frame) : 0.111Stream size : 151 MiB (93%)Tagged date : UTC 2013-11-13 20:07:56
AudioID : 2Format : AACFormat/Info : Advanced Audio CodecFormat profile : LCCodec ID : 40Duration : 8mn 18sBit rate mode : VariableBit rate : 192 KbpsMaximum bit rate : 201 KbpsChannel(s) : 2 channelsChannel positions : Front: L RSampling rate : 44.1 KHzCompression mode : LossyStream size : 11.4 MiB (7%)Title : IsoMedia File Produced by Google, 5-11-2011Encoded date : UTC 2013-11-13 20:07:40Tagged date : UTC 2013-11-13 20:07:56
Скриншоты
Скачать

Скачать торрент!

Как скачивать? · Что такое торрент? · Рейтинг и ограничения

Сайт не распространяет и не хранит электронные версии произведений, а лишь предоставляет доступ к создаваемому пользователями каталогу ссылок на торрент-файлы, которые содержат только списки хеш-сумм

[Профиль] [ЛС]
Показать сообщения:    
Ответить на тему

Текущее время: Сегодня 14:33

Часовой пояс: GMT + 4



Вы не можете начинать темы
Вы не можете отвечать на сообщения
Вы не можете редактировать свои сообщения
Вы не можете удалять свои сообщения
Вы не можете голосовать в опросах
Вы не можете прикреплять файлы к сообщениям
Вы не можете скачивать файлы