Служители зла / The Evil Cult / Yi tin to lung gei: Moh gaau gaau jue (Цзин Вон / Jing Wong, Саммо Кам-Бо Хунг / Sammo Kam-Bo Hung) [1993, Гонконг, Фэнтези, боевик, история, DVDRip] MVO

Ответить на тему
 
Автор Сообщение

user ®

Стаж: 13 лет

Сообщений: 15071

Пост Пост: #1 от 04-Янв-2015 15:40

[Цитировать]

Служители зла / The Evil Cult / Yi tin to lung gei: Moh gaau gaau jue
Страна: Гонконг
Жанр: Фэнтези, боевик, история
Год выпуска: 1993
Продолжительность: 01:38:45
Перевод: Профессиональный (многоголосый закадровый)
Оригинальная аудиодорожка: нет
Cубтитры: нет
Режиссер: Цзин Вон / Jing Wong, Саммо Кам-Бо Хунг / Sammo Kam-Bo Hung
В ролях: Джет Ли, Mэн Чунг, Чингми Яу, Саммо Хунг Кам-Бо, Ричард ЭнДжи, Ка-Ян Леунг, Гиги Лаи, Колин Чоу, Френсис Нг, Экин Чэн
Описание: Эпоха великой династии Юэнь. Могущественные секты бесстрашных войнов и магов борются за обладание мечом То-Лун и саблей Йи -Тинь, ибо древняя легенда гласит: тот, кто станет их хозяином, будет править всем миром. Царство стонет от бессмысленных распрей и жестоких сражений, и вскоре становится ясно, что остановить кровопролитие сможет лишь бесстрашный юноша Мо Кей, поклявшийся отомстить за убитого отца вождям враждующих сект.
С помощью таинственной магии и секретных приемов восточных единоборств он покорит несокрушимые кланы и восстановит желанный мир на земле своих предков, став непобедимым мастером древних боевых искусств.


Качество: DVDRip
Контейнер: AVI
Видео: 720x384 (1.88:1), 25 fps, XviD build 50 ~1729 kbps avg, 0.25 bit/pixel
Аудио: 48 kHz, AC3 Dolby Digital, 3/2 (L,C,R,l,r) + LFE ch, ~384 kbps

MI
Общее
Полное имя : C:\Users\Пользователь\Downloads\Slujiteli zla_DVDRip_1400_Некул.avi.avi
Формат : AVI
Формат/Информация : Audio Video Interleave
Размер файла : 1,46 Гбайт
Продолжительность : 1 ч. 38 м.
Общий поток : 2123 Кбит/сек
Программа кодирования : VirtualDubMod 1.5.10.3 | www.virtualdub-fr.org || (build 2550/release)
Библиотека кодирования : VirtualDubMod build 2550/release
Видео
Идентификатор : 0
Формат : MPEG-4 Visual
Профиль формата : Advanced Simple@L5
Параметр BVOP формата : 1
Параметр QPel формата : Нет
Параметр GMC формата : Без точки перехода
Параметр матрицы формата : Default (MPEG)
Идентификатор кодека : XVID
Идентификатор кодека/Подсказка : XviD
Продолжительность : 1 ч. 38 м.
Битрейт : 1730 Кбит/сек
Ширина : 720 пикселей
Высота : 384 пикселя
Соотношение сторон : 1,85:1
Частота кадров : 25,000 кадров/сек
Цветовое пространство : YUV
Субдискретизация насыщенности : 4:2:0
Битовая глубина : 8 бит
Тип развёртки : Прогрессивная
Метод сжатия : С потерями
Бит/(Пиксели*Кадры) : 0.250
Размер потока : 1,19 Гбайт (81%)
Библиотека кодирования : XviD 1.2.1 (UTC 2008-12-04)
Аудио
Идентификатор : 1
Формат : AC-3
Формат/Информация : Audio Coding 3
Расширение режима : CM (complete main)
Параметр Endianness формата : Big
Идентификатор кодека : 2000
Продолжительность : 1 ч. 38 м.
Вид битрейта : Постоянный
Битрейт : 384 Кбит/сек
Каналы : 6 каналов
Расположение каналов : Front: L C R, Side: L R, LFE
Частота : 48,0 КГц
Битовая глубина : 16 бит
Метод сжатия : С потерями
Размер потока : 271 Мбайт (18%)
Выравнивание : Разделение по промежуткам
Продолжительность промежутка : 40 мс. (1,00 видеокадр)
Время предзагрузки промежутка : 500 мс.
Скриншоты
Скачать

Скачать торрент! Служители зла / The Evil Cult / Yi tin to lung gei: Moh gaau gaau jue (Цзин Вон / Jing Wong, Саммо Кам-Бо Хунг / Sammo Kam-Bo Hung) [1993, Гонконг, Фэнтези, боевик, история, DVDRip] MVO

Как скачивать? · Что такое торрент? · Рейтинг и ограничения

Сайт не распространяет и не хранит электронные версии произведений, а лишь предоставляет доступ к создаваемому пользователями каталогу ссылок на торрент-файлы, которые содержат только списки хеш-сумм

[Профиль] [ЛС]
Показать сообщения:    
Ответить на тему

Текущее время: Сегодня 17:28

Часовой пояс: GMT + 4



Вы не можете начинать темы
Вы не можете отвечать на сообщения
Вы не можете редактировать свои сообщения
Вы не можете удалять свои сообщения
Вы не можете голосовать в опросах
Вы не можете прикреплять файлы к сообщениям
Вы не можете скачивать файлы