Сезон хороших дождей / Season Of Good Rain / Ho woo shi jul / A Good Rain Knows (Хо Джин Хо / Hur Jin Ho) [2009, Южная Корея, Китай, драма, мелодрама, HDRip] DVO

Ответить на тему
 
Автор Сообщение

user ®

Стаж: 13 лет

Сообщений: 15071

Пост Пост: #1 от 04-Янв-2015 06:10

[Цитировать]

Сезон хороших дождей / Season Of Good Rain / Ho woo shi jul / A Good Rain Knows- -Страна: Южная Корея, Китай
Жанр: драма, мелодрама
Год выпуска: 2009
Продолжительность: 01:41:26-Перевод: Любительский (двухголосый закадровый) [Julia Moonbeam, sam2007]-Cубтитры: нет
Оригинальная аудиодорожка: нет
Режиссер: Хо Джин Хо / Hur Jin Ho
В ролях: Чон У Сон, Гао Юаньюань, Ким Сан Хо, Ма Шаохуа
Описание: Тридцатилетний кореец Дон Ха отправляется в командировку в Ченду (Китай), где его компания занимается разработкой проектов по восстановлению города после землетрясения в 2008 году. Здесь он совершенно случайно встречает свою старую подругу, вместе с которой учился в школе в США. Она вернулась в Ченду после окончания учёбы и работает экскурсоводом. Дон Ха и Мэй, возможно были больше, чем просто друзьями. И их чувства к друг другу намного сильней, чем просто дружеские… Но их пути разошлись прежде, чем они это смогли понять. Теперь, когда они снова встретились, они уверены, что старые чувства никуда не ушли. А новые, ни что иное, как любовь.
Релиз от -
Сэмпл: http://multi-up.com/1024302
Качество видео: HDRip
Формат видео: AVI
Видео: MPEG-4 Visual at 894 Кбит/сек; 688 x 352 (1.955) at 23.976 fps
Аудио: MPEG Audio at 128 Кбит/сек; 2 канала, 48,0 КГц
Автор -
MediaInfo
Общее
Полное имя : D:\Фильмы\Азиатские\Сезон хороших дождей\Season Of Good Rain.2009.HDRip.XviD.745MB. rip by [Assassin's Creed].avi
Формат : AVI
Формат/Информация : Audio Video Interleave
Размер файла : 748 Мбайт
Продолжительность : 1 ч. 41 м.
Общий поток : 1031 Кбит/сек
Программа кодирования : VirtualDubMod 1.5.10.3 | www.virtualdub-fr.org || (build 2550/release)
Библиотека кодирования : VirtualDubMod build 2550/release
Видео
Идентификатор : 0
Формат : MPEG-4 Visual
Профиль формата : Advanced Simple@L5
Параметр BVOP формата : 1
Параметр QPel формата : Нет
Параметр GMC формата : Без точки перехода
Параметр матрицы формата : Default (MPEG)
Идентификатор кодека : XVID
Идентификатор кодека/Подсказка : XviD
Продолжительность : 1 ч. 41 м.
Битрейт : 894 Кбит/сек
Ширина : 688 пикселей
Высота : 352 пикселя
Соотношение сторон : 1,955
Частота кадров : 23,976 кадра/сек
Цветовое пространство : YUV
Субдискретизация насыщенности : 4:2:0
Битовая глубина : 8 бит
Тип развёртки : Прогрессивная
Метод сжатия : С потерями
Бит/(Пиксели*Кадры) : 0.154
Размер потока : 649 Мбайт (87%)
Библиотека кодирования : XviD 1.2.1 (UTC 2008-12-04)
Аудио
Идентификатор : 1
Формат : MPEG Audio
Версия формата : Version 1
Профиль формата : Layer 3
Идентификатор кодека : 55
Идентификатор кодека/Подсказка : MP3
Продолжительность : 1 ч. 41 м.
Вид битрейта : Постоянный
Битрейт : 128 Кбит/сек
Каналы : 2 канала
Частота : 48,0 КГц
Метод сжатия : С потерями
Размер потока : 92,9 Мбайт (12%)
Выравнивание : Соединение по промежуткам
Продолжительность промежутка : 42 мс. (1,00 видеокадр)
Время предзагрузки промежутка : 504 мс.
Библиотека кодирования : LAME3.99r
Настройки программы : -m s -V 4 -q 2 -lowpass 17 -b 128
Скриншот c названием фильма Скриншоты
Скачать

Скачать торрент! Сезон хороших дождей / Season Of Good Rain / Ho woo shi jul / A Good Rain Knows (Хо Джин Хо / Hur Jin Ho) [2009, Южная Корея, Китай, драма, мелодрама, HDRip] DVO

Как скачивать? · Что такое торрент? · Рейтинг и ограничения

Сайт не распространяет и не хранит электронные версии произведений, а лишь предоставляет доступ к создаваемому пользователями каталогу ссылок на торрент-файлы, которые содержат только списки хеш-сумм

[Профиль] [ЛС]
Показать сообщения:    
Ответить на тему

Текущее время: Сегодня 17:25

Часовой пояс: GMT + 4



Вы не можете начинать темы
Вы не можете отвечать на сообщения
Вы не можете редактировать свои сообщения
Вы не можете удалять свои сообщения
Вы не можете голосовать в опросах
Вы не можете прикреплять файлы к сообщениям
Вы не можете скачивать файлы