12 месяцев (Александр Баршак) [2013, Комедия, WEB-DLRip]

Ответить на тему
 
Автор Сообщение

user ®

Стаж: 7 лет 7 месяцев

Сообщений: 20008

Пост Пост: #1 от 04-Янв-2015 06:10

[Цитировать]

12 месяцев-- Жанр: Комедия
Год выпуска: 2013
Продолжительность: 01:36:25
Режиссёр: Александр Баршак--В ролях: Алеса Качер, Иван Дорн, Максим Юдин, Александр Головин, Армен Джигарханян, Екатерина Гусева, Максим Виторган, Мария Сёмкина, Виктор Бычков, Артур Смольянинов, Эдуард Чекмазов, Аристарх Венес, Ксения Дмитриева, Александр Емельяненко, Андрей Ширман, Евгений Малкин (II), Илья Ковальчук, Аскольд Запашный, Эдгард Запашный
Описание: О чем может мечтать провинциальная девчонка, приехавшая покорять Москву? У главной героини фильма Маши Смирновой уже имеется список заветных желаний: грудь третьего размера, роскошная шуба, отдельная квартира, любовь и карьера звезды шоу-бизнеса. Когда в руки девушки попадает сказочная книга «12 месяцев», её мечты неожиданно начинают сбываться! Но у каждой медали есть оборотная сторона: желания Маши причиняют вред ее любимым людям. Теперь девушка должна сама бескорыстно творить «чудеса» для других, чтобы спасти своих близких и вернуть свою настоящую любовь.--Сэмпл: http://sendfile.su/1069307
Качество видео: WEB-DLRip
Формат видео: AVI
Видео: 688x304 (2.25:1), 24.00 fps, ~944 kbps avg, 0.19 bit/pixel
Аудио: 48.00 kHz, MPEG Layer 3, 2 ch, ~128.00 kbps avg

MediaInfo
General
Format : AVI
Format/Info : Audio Video Interleave
File size : 746 MiB
Duration : 1h 36mn
Overall bit rate : 1 082 Kbps
Writing application : VirtualDubMod 1.5.10.3 | www.virtualdub-fr.org || (build 2550/release)
Writing library : VirtualDubMod build 2550/release
Video
ID : 0
Format : MPEG-4 Visual
Format profile : Advanced Simple@L5
Format settings, BVOP : 1
Format settings, QPel : No
Format settings, GMC : No warppoints
Format settings, Matrix : Default (H.263)
Codec ID : XVID
Codec ID/Hint : XviD
Duration : 1h 36mn
Bit rate : 944 Kbps
Width : 688 pixels
Height : 304 pixels
Display aspect ratio : 2.25:1
Frame rate : 24.000 fps
Color space : YUV
Chroma subsampling : 4:2:0
Bit depth : 8 bits
Scan type : Progressive
Compression mode : Lossy
Bits/(Pixel*Frame) : 0.188
Stream size : 651 MiB (87%)
Writing library : XviD 73
Audio
ID : 1
Format : MPEG Audio
Format version : Version 1
Format profile : Layer 3
Codec ID : 55
Codec ID/Hint : MP3
Duration : 1h 36mn
Bit rate mode : Constant
Bit rate : 128 Kbps
Channel(s) : 2 channels
Sampling rate : 48.0 KHz
Compression mode : Lossy
Stream size : 88.3 MiB (12%)
Alignment : Aligned on interleaves
Interleave, duration : 42 ms (1.00 video frame)
Interleave, preload duratio : 504 ms
Writing library : LAME3.98r
Encoding settings : -m s -V 4 -q 3 -lowpass 17 -b 128
Скриншот c названием фильма Скриншоты
Скачать

Скачать торрент!

Как скачивать? · Что такое торрент? · Рейтинг и ограничения

Сайт не распространяет и не хранит электронные версии произведений, а лишь предоставляет доступ к создаваемому пользователями каталогу ссылок на торрент-файлы, которые содержат только списки хеш-сумм

[Профиль] [ЛС]
Показать сообщения:    
Ответить на тему

Текущее время: Сегодня 07:08

Часовой пояс: GMT + 4



Вы не можете начинать темы
Вы не можете отвечать на сообщения
Вы не можете редактировать свои сообщения
Вы не можете удалять свои сообщения
Вы не можете голосовать в опросах
Вы не можете прикреплять файлы к сообщениям
Вы не можете скачивать файлы