Счастливый конец / Счастливый финал / Happy Ending (Кришна Д. / Krishna D.K., Радж Нидимору / Raj Nidimoru) [2014, Индия, Комедия, мелодрама, DVDRip] DVO + Sub Rus (песни)

Ответить на тему
 
Автор Сообщение

user ®

Стаж: 12 лет

Сообщений: 15092

Пост Пост: #1 от 03-Янв-2015 22:40

[Цитировать]

Счастливый конец / Happy Ending*Жизнь это не книга! В ней никто не гарантирует счастливый конец!* -Страна: Индия
Жанр: Комедия, мелодрама
Год выпуска: 2014
Продолжительность: 02:09:51--Язык: Хинди
Перевод: Любительский (двухголосый закадровый) - DeadSno & den904
Субтитры: Есть (только песни)
Перевод и редакция: Honey&Haseena--Режиссеры:
Кришна Д. / Krishna D.K.
Радж Нидимору / Raj Nidimoru-В ролях: Саиф Али Кхан, Илеана, Калки Коечлин, Говинда, Ранвир Шори, Рахул Нат, Шивани Танксале, Прити Зинта, Карина Капур--Описание: «Я люблю тебя» - именно этих трёх страшных слов боится вечный холостяк Юди. Самые идеальные отношения для него – это ни к чему не ведущие и ни к чему не обязывающие. Но у его девушки Вишакхи, присосавшейся к нему, как пиявка и по пятам преследующей его, совсем иное мнение об этом. Её Юдик-Чудик, должен 24 часа в сутки находится только рядом с ней. Пытаясь избежать чрезмерной навязчивости ненормальной подружки, Юди берётся за первую попавшуюся работу, в которой он должен написать сценарий для помешанного на ромкомах Армана-джи. Ко всему вдобавок, в писательской индустрии у Юди появляется обаятельная конкурентка Ачал, которая путём афёры, начинает наперебой отбивать у него контракты. Юди решает сдружиться с ней, дабы вывести мошенницу на чистую воду. Он начинает свою историю. Кто знает, может у неё будет счастливый конец? (c) Honey-- | --Качество видео: DVDRip
Формат видео: AVI-Видео: 672x288 (2.33:1), 23.976 fps, XviD build 50 ~1405 kbps avg, 0.30 bit/pixel
Аудио: 8 kHz, AC3 Dolby Digital, 2/0 (L,R) ch, ~192 kbps
Формат субтитров: hardsub (неотключаемые, вшитые в картинку)--Сэмпл / Sample--[Озвучивание: DeadSno & den904 (спасибо!)
Перевод на русский язык: Honey&Haseena (спасибо!)
Риппер: soso4eg-- -
-
-Скриншот с названием:
-
Скриншоты:
-
MediaInfo
General
Complete name : C:\INDIYA\Schastliviy.konec.2014.DVDRip.XviD.LDVO-soso4eg.avi
Format : AVI
Format/Info : Audio Video Interleave
File size : 1.46 GiB
Duration : 2h 9mn
Overall bit rate : 1 607 Kbps
Movie name : Happy.Ending.2014.DVDRip.XviD.LDVO-soso4eg
Director : soso4eg
Writing application : VirtualDubMod 1.5.10.3 | www.virtualdub-fr.org || (build 2550/release)
Original source form/Name : Hindi
Copyright : специально для BitTorrent трекер *** (ex torrents.ru)
Comment : пер.LDVO (Колобок) по суб. Honey&Haseena
Video
ID : 0
Format : MPEG-4 Visual
Format profile : Advanced Simple@L5
Format settings, BVOP : 2
Format settings, QPel : No
Format settings, GMC : No warppoints
Format settings, Matrix : Default (H.263)
Codec ID : XVID
Codec ID/Hint : XviD
Duration : 2h 9mn
Bit rate : 1 406 Kbps
Width : 672 pixels
Height : 288 pixels
Display aspect ratio : 2.35:1
Frame rate : 23.976 fps
Color space : YUV
Chroma subsampling : 4:2:0
Bit depth : 8 bits
Scan type : Progressive
Compression mode : Lossy
Bits/(Pixel*Frame) : 0.303
Stream size : 1.28 GiB (87%)
Writing library : XviD 1.2.1 (UTC 2008-12-04)
Audio
ID : 1
Format : AC-3
Format/Info : Audio Coding 3
Mode extension : CM (complete main)
Format settings, Endianness : Big
Codec ID : 2000
Duration : 2h 9mn
Bit rate mode : Constant
Bit rate : 192 Kbps
Channel(s) : 2 channels
Channel positions : Front: L R
Sampling rate : 48.0 KHz
Bit depth : 16 bits
Compression mode : Lossy
Stream size : 178 MiB (12%)
Alignment : Split accross interleaves
Interleave, duration : 42 ms (1.00 video frame)
Interleave, preload duration : 500 ms
-
Скачать

Скачать торрент! Счастливый конец / Счастливый финал / Happy Ending (Кришна Д. / Krishna D.K., Радж Нидимору / Raj Nidimoru) [2014, Индия, Комедия, мелодрама, DVDRip] DVO + Sub Rus (песни)

Как скачивать? · Что такое торрент? · Рейтинг и ограничения

Сайт не распространяет и не хранит электронные версии произведений, а лишь предоставляет доступ к создаваемому пользователями каталогу ссылок на торрент-файлы, которые содержат только списки хеш-сумм

[Профиль] [ЛС]
Показать сообщения:    
Ответить на тему

Текущее время: Сегодня 13:04

Часовой пояс: GMT + 4



Вы не можете начинать темы
Вы не можете отвечать на сообщения
Вы не можете редактировать свои сообщения
Вы не можете удалять свои сообщения
Вы не можете голосовать в опросах
Вы не можете прикреплять файлы к сообщениям
Вы не можете скачивать файлы